<?xml version="1.0" standalone="no"?>
<!DOCTYPE svg PUBLIC "-//W3C//DTD SVG 1.1//EN" "http://www.w3.org/Graphics/SVG/1.1/DTD/svg11.dtd" >
<svg xmlns="http://www.w3.org/2000/svg" xmlns:xlink="http://www.w3.org/1999/xlink" version="1.1">
<defs>
<font id="happy-icons" horiz-adv-x="1024" >
  <font-face
    font-family="Happy Icons"
    font-weight="400"
    font-stretch="normal"
    units-per-em="1024"
    panose-1="0 0 0 0 0 0 0 0 0 0"
    ascent="960"
    descent="-64"
    bbox="-29 -80 1696 976"
    underline-thickness="0"
    underline-position="0"
    unicode-range="U+0001-FFFD"
  />
<missing-glyph
 />
    <glyph glyph-name=".notdef" unicode="&#xfffd;"
 />
    <glyph glyph-name="glyph1" horiz-adv-x="0"
d="M0 0v0v0v0z" />
    <glyph glyph-name="glyph1" horiz-adv-x="0"
d="M0 0v0v0v0z" />
    <glyph glyph-name="nonmarkingreturn" horiz-adv-x="341"
 />
    <glyph glyph-name="uni0001" horiz-adv-x="0"
d="M0 0v0v0v0z" />
    <glyph glyph-name="space" unicode=" " horiz-adv-x="512"
d="M0 0v0v0v0z" />
    <glyph glyph-name="uniE900" unicode="&#xe900;"
d="M512 611q-7 0 -11.5 -4.5t-4.5 -11.5t4.5 -11.5t11.5 -4.5q106 0 194 -13t151.5 -33.5t99.5 -46.5q35 -26 35 -51q0 -20 -22 -41q-22 -20 -62.5 -38t-97.5 -32q-58 -15 -128 -23q2 36 4 72.5t2 74.5q0 7 -4.5 11.5t-11.5 4.5t-11.5 -4.5t-4.5 -11.5q0 -41 -2 -77.5
t-4 -72.5q-32 -3 -67 -5t-71 -2t-70 2t-68 5q-4 36 -5 72.5t-1 77.5q0 106 13 194t33.5 151.5t46.5 99.5q26 35 51 35q31 0 60.5 -49.5t51.5 -136.5l-58 26q-4 2 -10.5 0t-11.5 -6q-2 -5 0 -11.5t6 -11.5l109 -51l48 109q3 7 1 12t-7 10q-5 3 -11.5 1t-11.5 -7l-25 -58
q-22 96 -60 150.5t-81 54.5t-76 -45t-55 -117.5t-34 -164.5q-11 -91 -11 -185q0 -36 2 -73.5t4 -73.5q-70 8 -128 23q-57 14 -97.5 32t-62.5 38q-22 21 -22 41q0 31 49.5 61t136.5 51l-26 -57q-2 -5 0 -11.5t6 -11.5h3.5h3.5q5 0 9 2.5t7 7.5l51 109l-109 48q-5 2 -11 0
t-11 -7q-3 -7 -1 -12t7 -10l58 -26q-101 -24 -154.5 -61t-53.5 -83q0 -33 28 -61q28 -27 75 -48t110 -36q63 -14 132 -21q10 -69 26 -129q15 -61 36.5 -106t48.5 -72q27 -26 59 -26t59 26q27 27 48 72t36 106q15 60 23 129q70 8 133 23q62 14 109.5 34.5t75.5 48.5
q28 27 28 60q0 43 -45 76t-117.5 55.5t-164.5 33.5q-91 11 -185 11v0zM512 -32q-19 0 -39 21t-37.5 59.5t-31.5 93.5q-15 55 -23 124q33 -3 66.5 -5t64.5 -2t65.5 2t65.5 5q-8 -69 -23 -124q-14 -55 -31.5 -93.5t-37.5 -59.5t-39 -21z" />
    <glyph glyph-name="uniE901" unicode="&#xe901;"
d="M326 582q-9 0 -13 2t-9 5q-5 5 -5.5 8.5t-0.5 10.5v4v2q-3 0 -4 2t-6 2q-2 0 -4 -0.5t-2 -3.5l-2 -2t-2 -4q0 -7 3 -15.5t10 -13.5t17 -9t25 -4q12 0 21.5 3t16.5 10t10 17t3 25v6q0 15 -5.5 26t-20.5 16q5 2 9.5 6.5t6.5 9.5q3 5 5 12t2 17q0 21 -12 32.5t-36 11.5h-14
t-12 -3q-5 -9 -9 -13t-7 -6q-2 -5 -4 -7.5t-2 -5.5q-3 -5 -3 -8v-8v-4.5t3 -4.5q2 -3 3.5 -1.5t5.5 1.5q5 0 7.5 2t2.5 7t2 9.5t4 6.5q3 5 9.5 6t13.5 1q14 0 21.5 -7.5t7.5 -21.5q0 -10 -2 -15t-5 -8q-5 -4 -10 -5t-12 -1q-5 0 -6 -2.5t-1 -7.5q0 -4 -2 -6.5t2 -2.5
q17 0 21.5 -7.5t4.5 -24.5v-7q0 -16 -4.5 -24t-21.5 -8v0zM474 733q7 0 10.5 -2t8.5 -5q5 -2 5.5 -7t0.5 -12q0 -5 2.5 -7t7.5 -2t7 2t2 7q0 10 -4 17.5t-12 14.5q-7 7 -17 10t-24 3q-15 0 -20 -4.5t-12 -11.5q-7 -5 -10 -16t-3 -26v-76q0 -15 3 -25t10 -17t16.5 -10
t21.5 -3t20 3t15 10q8 7 9 17t1 25v6q0 26 -6 38.5t-32 12.5q-12 0 -19 -4.5t-7 -11.5v35q0 20 4.5 29.5t21.5 9.5v0zM480 656q17 0 24.5 -9t7.5 -26v-7q0 -19 -7.5 -27t-24.5 -8t-24.5 9.5t-7.5 25.5v7q0 19 7.5 27t24.5 8zM602 563q12 0 26 3t22 10q7 7 14.5 17t7.5 25v76
q0 15 -7.5 25t-14.5 17q-8 7 -19.5 10t-25.5 3q-12 0 -23.5 -3t-21.5 -10q-5 -5 -10.5 -16t-5.5 -26v-76q0 -15 4.5 -25t11.5 -17t18.5 -10t23.5 -3v0zM576 694q0 20 6 28t23 8q7 0 14 -2.5t11 -7.5q5 -5 7.5 -10.5t2.5 -15.5v-76q0 -10 -3.5 -17t-6.5 -12q-2 -5 -8.5 -7.5
t-13.5 -2.5q-17 0 -24.5 9.5t-7.5 25.5v80v0zM602 646q2 0 4 0.5t2 3.5q2 2 2.5 3t0.5 3t-0.5 4t-2.5 2t-3 2t-3 2q-3 0 -5 -0.5t-2 -3.5q0 -2 -1.5 -3t-1.5 -3t0.5 -4t2.5 -2q3 0 3.5 -2t3.5 -2zM720 698q5 4 5.5 7.5t0.5 8.5v16q0 4 -2 8.5t-4 7.5q-5 4 -8.5 5t-10.5 1
t-11 -2l-8 -4q-5 -5 -6 -8.5t-1 -7.5v-13q0 -5 2 -9.5t5 -6.5q2 -3 7 -5t12 -2q7 -2 10.5 -0.5t8.5 4.5zM688 717v13q0 2 0.5 4.5t2.5 4.5q3 3 5 3h5h4.5t4.5 -3q3 -2 3.5 -4.5t0.5 -4.5v-13q0 -3 -0.5 -5t-3.5 -5q-2 -2 -4.5 -2.5t-4.5 -0.5q-3 0 -5 0.5t-5 2.5
q-2 0 -2.5 2.5t-0.5 7.5zM752 675q-7 3 -12 -1t-7 -12q-3 -7 1 -11.5t12 -7.5q56 -14 102 -35q45 -21 77 -46.5t50 -54.5q17 -29 17 -59q0 -42 -33 -80q-32 -38 -89 -68t-135 -50q-77 -20 -165 -26q-8 0 -12 -5.5t-4 -10.5q0 -7 4 -11.5t12 -4.5v0v0q97 0 180 22
q83 21 144 56.5t95 82.5q35 46 35 95q0 36 -19 70q-19 33 -54.5 62.5t-85.5 53.5q-51 24 -113 41v0zM384 278q-5 -4 -5 -10.5t5 -11.5l26 -26q-82 9 -151 29t-119.5 49t-79.5 65q-28 35 -28 75q0 53 52.5 101t145.5 81q8 3 10 9t0 11q0 4 -6 8t-13 1q-52 -18 -93 -41
q-41 -24 -69.5 -51t-43.5 -58q-15 -30 -15 -61q0 -47 31 -87t86 -72.5t131 -55.5q77 -23 168 -35l-32 -32q-5 -4 -5 -10.5t5 -11.5q2 -2 5 -2.5t8 -0.5q2 0 6 0.5t7 2.5l70 70l-70 71q-8 0 -14.5 -1t-11.5 -6z" />
    <glyph glyph-name="uniE902" unicode="&#xe902;" horiz-adv-x="1408"
d="M221 -29q2 -17 15 -26t30 -9q2 0 6 0.5t6 2.5l263 74q9 2 16.5 8.5t12.5 13.5q4 10 4.5 19t-1.5 16l-218 727q-5 19 -23 28t-34 4l-263 -74q-9 -2 -16.5 -8.5t-12.5 -13.5q-4 -10 -6 -19.5t3 -19.5l218 -723v0zM35 717q3 2 5 4t5 2l262 77h1.5h1.5q5 0 9.5 -3t6.5 -10
l218 -723v-6v-7q-2 -2 -4.5 -4t-5.5 -2l-265 -77q-7 -2 -12 1.5t-7 8.5l-218 726q0 2 0.5 6t2.5 7v0zM1373 752l-256 77q-19 5 -36.5 -4t-24.5 -28l-224 -723q0 -8 1 -17t5 -19q5 -9 12.5 -14.5t16.5 -7.5l256 -77q3 0 7 -1.5t6 -1.5q17 0 28.5 9t16.5 26l224 723
q5 8 3 16.5t-6 15.5q-5 10 -12.5 17t-16.5 9v0zM1376 701l-224 -723q-2 -8 -8 -10t-11 0l-256 77q-3 0 -5 2t-5 4q-2 5 -2.5 9.5t-0.5 6.5l224 723q2 3 6.5 6.5t9.5 3.5h1.5h1.5l256 -77q3 0 5 -2t5 -4q2 -5 2.5 -9.5t0.5 -6.5v0zM704 0v928q0 7 -4.5 11.5t-11.5 4.5
t-11.5 -4.5t-4.5 -11.5v-928q0 -7 4.5 -11.5t11.5 -4.5t11.5 4.5t4.5 11.5z" />
    <glyph glyph-name="uniE903" unicode="&#xe903;"
d="M128 960q-7 0 -11.5 -4.5t-4.5 -11.5t4.5 -11.5t11.5 -4.5h736q7 0 11.5 4.5t4.5 11.5t-4.5 11.5t-11.5 4.5h-736zM976 800h-928q-19 0 -33.5 -14.5t-14.5 -33.5v-608q0 -19 14.5 -33.5t33.5 -14.5h928q19 0 33.5 14.5t14.5 33.5v608q0 19 -14.5 33.5t-33.5 14.5z
M992 144q0 -7 -4.5 -11.5t-11.5 -4.5h-928q-7 0 -11.5 4.5t-4.5 11.5v608q0 7 4.5 11.5t11.5 4.5h928q7 0 11.5 -4.5t4.5 -11.5v-608zM864 -32h-736q-7 0 -11.5 -4.5t-4.5 -11.5t4.5 -11.5t11.5 -4.5h736q7 0 11.5 4.5t4.5 11.5t-4.5 11.5t-11.5 4.5z" />
    <glyph glyph-name="uniE904" unicode="&#xe904;"
d="M512 800q-89 0 -167 -34q-79 -33 -138 -91.5t-93 -137.5t-34 -169q0 -84 29.5 -157t82.5 -131l-118 -118q-5 -5 -5 -11.5t5 -11.5q2 0 5 -1.5t7 -1.5q5 0 8 0.5t5 2.5l115 115q29 -26 63 -48t72 -37.5t79 -23.5q41 -9 84 -9t84 8q42 8 80 24t72 38q35 23 65 52l115 -119
q2 -2 5 -4t8 -2q2 0 5.5 0.5t3.5 2.5q5 5 5 11.5t-5 10.5l-115 119q51 57 81.5 130.5t30.5 157.5q-1 91 -35 170q-35 80 -93.5 138.5t-137.5 92.5t-169 34v0zM512 -32q-83 0 -156 31q-72 32 -126.5 86.5t-86.5 126.5q-31 73 -31 156t31 156q32 72 86 126.5t127 86.5
q73 31 156 31t156 -31q72 -32 126.5 -86t86.5 -127q31 -73 31 -156t-31 -156q-32 -72 -86 -126.5t-127 -86.5q-73 -31 -156 -31zM282 928q40 0 71.5 -24t43.5 -62q0 -8 6 -10t13 0t9.5 8t0.5 11q-15 48 -54.5 78.5t-89.5 30.5q-65 0 -109.5 -44.5t-44.5 -109.5
q0 -26 9.5 -51t28.5 -45q3 -4 5.5 -5t4.5 -1t4.5 0.5t5.5 2.5q4 5 4.5 11.5t-1.5 11.5q-15 16 -22 35.5t-7 40.5q0 51 35.5 86.5t86.5 35.5zM835 710q3 -2 5 -2.5t5 -0.5q2 0 6 2t7 5q16 21 25.5 45t9.5 51q0 62 -44.5 107.5t-109.5 45.5q-50 0 -89.5 -30.5t-54.5 -78.5
q-2 -7 1.5 -11.5t8.5 -7.5q7 -2 12 1.5t7 8.5q12 36 43 59.5t72 23.5q51 0 86.5 -35.5t35.5 -86.5q0 -21 -7.5 -40.5t-21.5 -35.5q-5 -3 -3.5 -10t6.5 -10v0zM528 688q-7 0 -11.5 -4.5t-4.5 -11.5v-285l-138 -128q-4 -5 -4 -11t4 -11q3 -3 5.5 -5t7.5 -2q3 0 5 0.5t5 3.5
l144 134q2 2 4 5t2 8v291q-2 7 -7 11.5t-12 4.5v0z" />
    <glyph glyph-name="uniE905" unicode="&#xe905;" horiz-adv-x="1248"
d="M80 384q34 0 57 23t23 57t-23 57t-57 23t-57 -23t-23 -57t23 -57t57 -23zM80 512q19 0 33.5 -14.5t14.5 -33.5t-14.5 -33.5t-33.5 -14.5t-33.5 14.5t-14.5 33.5t14.5 33.5t33.5 14.5zM765 576q-46 0 -79 -33t-33 -79t33 -79t79 -33q45 0 78.5 33t33.5 79t-32 79t-80 33z
M765 384q-34 0 -57 23t-23 57t23 57t57 23q33 0 56.5 -23t23.5 -57t-23.5 -57t-56.5 -23zM1152 544v0v0q-16 40 -45 75t-69 63.5t-89 49.5q-49 20 -104 30q0 2 1.5 4l1.5 2v64q0 7 -4.5 11.5t-11.5 4.5t-11.5 -4.5t-4.5 -11.5v-64v-1.5v-1.5q-14 2 -30.5 2.5t-33.5 0.5v0v0
v0v160q0 7 -4.5 11.5t-11.5 4.5t-11.5 -4.5t-4.5 -11.5v-160v0v0q-17 0 -33.5 -2.5t-33.5 -7.5q2 3 2.5 5.5t0.5 4.5v64q0 7 -4.5 11.5t-11.5 4.5t-11.5 -4.5t-4.5 -11.5v-64q0 -5 2.5 -7.5t7.5 -5.5q-84 -19 -150.5 -61t-102.5 -102q-22 19 -48 31t-55 17q-16 2 -27 -8.5
t-11 -29.5v-122h-32q-7 0 -11.5 -4.5t-4.5 -11.5t4.5 -11.5t11.5 -4.5h32v-122q0 -19 10 -28.5t22 -9.5h2h4q29 5 55 17t48 31q25 -40 64 -73t88 -56.5t106 -36.5q56 -13 116 -13h14.5h14.5v-3.5v-3.5l70 -153q15 -31 43.5 -47.5t59.5 -16.5q9 0 20.5 2.5t20.5 6.5
q22 10 38 25t23 36q7 19 7 40t-10 40l-64 131v0.5v3.5q48 26 85 59.5t59 74.5h16q41 0 68.5 27.5t27.5 68.5t-27.5 68.5t-68.5 27.5v0zM272 320v0v0v0zM272 320v2v4v279q0 2 0.5 4t2.5 2q55 -7 90 -48t35 -96q0 -57 -36.5 -98.5t-91.5 -48.5zM966 202l64 -132q5 -12 6.5 -27
t-6.5 -27q-4 -14 -16 -25.5t-28 -16.5q-32 -12 -63 -1t-43 40l-70 150q43 5 81.5 14.5t74.5 24.5v0v0v0zM752 192q-59 0 -113 12t-100 34.5t-82 54.5q-35 32 -57 72q14 21 23 47t9 52q0 29 -9 53.5t-23 45.5q22 39 58 70q36 32 82 55t100 35q54 13 112 13q79 0 149 -21
q69 -22 120.5 -58.5t81.5 -86.5t30 -106t-30 -106t-81.5 -86.5t-120.5 -58.5q-70 -21 -149 -21zM1152 384v0q5 19 9 38.5t4 41.5q0 12 -2 24t-5 24q24 -2 41 -21t17 -43q0 -26 -19 -45t-45 -19v0z" />
    <glyph glyph-name="uniE906" unicode="&#xe906;" horiz-adv-x="896"
d="M355 -26q19 -19 43 -28.5t50 -9.5t50 9.5t43 28.5l224 224q32 33 57 70q24 37 40.5 77.5t25.5 83.5q8 44 8 89q0 46 -9 89q-9 44 -26 84t-42 77q-25 36 -57 67q-33 30 -69 53q-37 24 -76.5 39.5t-81.5 24.5q-43 8 -87 8t-87 -8q-42 -8 -81.5 -24t-76.5 -40
q-36 -23 -69 -53q-32 -32 -57 -69t-42 -77.5t-26 -84.5q-9 -43 -9 -89q0 -45 8 -89q9 -43 25.5 -83.5t40.5 -77.5q25 -37 57 -70l224 -221v0zM157 810q30 28 64 50q34 23 70.5 38t76.5 22q39 8 80 8t80 -8q39 -7 76 -22t71 -37q34 -23 64 -51q30 -29 53 -63
q24 -34 39.5 -71.5t24.5 -77.5q8 -41 8 -83t-8 -82q-7 -41 -22.5 -78.5t-38.5 -72.5q-23 -34 -53 -64l-224 -224q-28 -29 -70 -29t-70 29l-224 224q-30 31 -53 65q-23 35 -38.5 72.5t-22.5 77.5q-8 40 -8 82t8 83q8 40 24 77.5t40 71.5q23 34 53 63v0zM506 224q9 0 17 -1.5
t18 -1.5q53 0 101 20.5t81 59.5q41 45 59.5 107t11.5 136q0 12 -8.5 19t-20.5 10q-65 7 -121 -13.5t-97 -63.5q-41 -46 -59 -107.5t-11 -135.5q0 -12 8.5 -19.5t20.5 -9.5v0zM570 474q31 33 71.5 51.5t88.5 18.5q7 0 14.5 -0.5t17.5 -2.5q7 -65 -9 -120.5t-52 -94.5
q-31 -33 -71.5 -51.5t-88.5 -18.5q-7 0 -15 0.5t-17 2.5q-7 63 9 118.5t52 96.5zM349 221q9 0 17 0.5t18 2.5t18 9.5t8 19.5q7 72 -11.5 133t-59.5 107q-36 38 -82.5 59t-99.5 21q-10 0 -18 -0.5t-17 -2.5q-10 -3 -18 -10t-8 -19q-7 -72 11.5 -133.5t58.5 -106.5
q36 -39 83 -59.5t100 -20.5v0zM128 541q7 0 14.5 1.5t17.5 1.5q48 0 88.5 -18.5t71.5 -51.5q36 -41 52 -97t9 -121q-58 -7 -106.5 11t-82.5 56q-38 41 -54.5 97t-9.5 121v0z" />
    <glyph glyph-name="uniE907" unicode="&#xe907;" horiz-adv-x="1088"
d="M16 416h80q2 -89 37 -167q34 -77 92.5 -135.5t135.5 -93.5q78 -36 167 -39v-13q0 -7 4.5 -11.5t11.5 -4.5t11.5 4.5t4.5 11.5v13q89 3 166 39q78 35 136.5 93.5t92.5 135.5q35 78 37 167h80q5 0 9.5 2.5t6.5 7.5q2 4 0.5 8.5t-3.5 7.5l-96 96q-5 4 -11.5 4t-11.5 -4
l-96 -96q-4 -3 -5 -7.5t-1 -8.5q0 -5 5.5 -7.5t10.5 -2.5h80q-2 -82 -35 -153q-32 -72 -86 -126.5t-126 -87.5q-71 -33 -153 -36v595h96q7 0 11.5 4.5t4.5 11.5t-4.5 11.5t-11.5 4.5h-96v90q41 4 68.5 36t27.5 76q0 45 -33 78.5t-79 33.5t-79 -33.5t-33 -78.5
q0 -41 27.5 -72.5t68.5 -36.5v-93h-96q-7 0 -11.5 -4.5t-4.5 -11.5t4.5 -11.5t11.5 -4.5h96v-595q-82 3 -153 36q-72 33 -126 87.5t-86 126.5q-33 71 -35 153h80q5 0 9.5 2.5t6.5 7.5q2 4 0.5 8.5t-3.5 7.5l-96 96q-5 4 -11.5 4t-11.5 -4l-96 -96q-4 -3 -5 -7.5t-1 -8.5
q0 -5 5.5 -7.5t10.5 -2.5v0zM976 506l58 -58h-116l58 58v0zM464 842q0 33 23 56.5t57 23.5t57 -23.5t23 -56.5q0 -34 -23 -57t-57 -23t-57 23t-23 57zM112 506l58 -58h-116z" />
    <glyph glyph-name="uniE908" unicode="&#xe908;" horiz-adv-x="832"
d="M160 208q0 -19 14.5 -33.5t33.5 -14.5h48v-160q0 -26 19 -45t45 -19t45 19t19 45v160h64v-160q0 -26 19 -45t45 -19t45 19t19 45v160h48q19 0 33.5 14.5t14.5 33.5v416q0 19 -14.5 33.5t-33.5 14.5h-416q-19 0 -33.5 -14.5t-14.5 -33.5v-416zM352 0q0 -14 -9 -23t-23 -9
t-23 9t-9 23v160h64v-160zM544 0q0 -14 -9 -23t-23 -9t-23 9t-9 23v160h64v-160zM192 624q0 7 4.5 11.5t11.5 4.5h416q7 0 11.5 -4.5t4.5 -11.5v-416q0 -7 -4.5 -11.5t-11.5 -4.5h-416q-7 0 -11.5 4.5t-4.5 11.5v416zM128 384v224q0 26 -19 45t-45 19t-45 -19t-19 -45v-224
q0 -26 19 -45t45 -19t45 19t19 45zM32 384v224q0 14 9 23t23 9t23 -9t9 -23v-224q0 -14 -9 -23t-23 -9t-23 9t-9 23zM832 384v224q0 26 -19 45t-45 19t-45 -19t-19 -45v-224q0 -26 19 -45t45 -19t45 19t19 45zM736 384v224q0 14 9 23t23 9t23 -9t9 -23v-224q0 -14 -9 -23
t-23 -9t-23 9t-9 23zM278 784q0 -24 17 -41t41 -17t41 17t17 41t-17 41t-41 17t-41 -17t-17 -41zM362 784q0 -10 -8 -18t-18 -8t-18 8t-8 18t8 18t18 8t18 -8t8 -18zM438 784q0 -24 17 -41t41 -17t41 17t17 41t-17 41t-41 17t-41 -17t-17 -41zM522 784q0 -10 -8 -18t-18 -8
t-18 8t-8 18t8 18t18 8t18 -8t8 -18zM160 704q0 -7 4.5 -11.5t11.5 -4.5t11.5 4.5t4.5 11.5q0 47 17 88q18 40 48 70.5t71 48.5q41 17 88 17t88 -17q40 -18 70.5 -48t48.5 -71q17 -41 17 -88v0q0 -7 4.5 -11.5t11.5 -4.5t11.5 4.5t4.5 11.5v1.5v1.5q-1 53 -22 99
q-20 46 -54.5 80.5t-80.5 53.5q-46 20 -99 20t-99 -20q-47 -20 -82 -55t-55 -82q-20 -46 -20 -99z" />
    <glyph glyph-name="uniE909" unicode="&#xe909;"
d="M512 192q-2 0 -6 0.5t-7 2.5l-480 480q-5 5 -5 11.5t5 11.5q5 4 11.5 4t11.5 -4l470 -468l467 471q5 5 11.5 5t11.5 -5q4 -5 4 -11.5t-4 -11.5l-480 -480q0 -4 -4 -5t-6 -1v0z" />
    <glyph glyph-name="uniE90A" unicode="&#xe90a;"
d="M752 -48q-2 0 -6 0.5t-7 2.5l-480 480q-5 5 -5 11.5t5 11.5l480 480q5 4 11.5 4t11.5 -4q4 -5 4 -11.5t-4 -11.5l-468 -467l468 -467q4 -5 4 -11.5t-4 -11.5q0 -4 -4 -5t-6 -1v0z" />
    <glyph glyph-name="uniE90B" unicode="&#xe90b;"
d="M272 -48q-2 0 -6 0.5t-7 2.5q-5 5 -5 11.5t5 11.5l471 470l-471 467q-2 5 -2 13t2 13q3 5 10.5 5t12.5 -5l480 -480q4 -5 4 -11.5t-4 -11.5l-480 -480q0 -4 -4 -5t-6 -1v0z" />
    <glyph glyph-name="uniE90C" unicode="&#xe90c;"
d="M992 192q-2 0 -6 0.5t-7 2.5l-467 471l-467 -471q-5 -5 -11.5 -5t-11.5 5q-4 5 -4 11.5t4 11.5l480 480q5 4 11.5 4t11.5 -4l480 -480q5 -5 5 -11.5t-5 -11.5q-3 -2 -7 -2.5t-6 -0.5v0z" />
    <glyph glyph-name="uniE90D" unicode="&#xe90d;"
d="M512 960q-106 0 -199 -40q-93 -41 -162.5 -110.5t-110.5 -162.5q-40 -93 -40 -199t40 -199q41 -93 110.5 -162.5t162.5 -110.5q93 -40 199 -40t199 40q93 41 162.5 110.5t110.5 162.5q40 93 40 199t-40 199q-41 93 -110.5 162.5t-162.5 110.5q-93 40 -199 40zM512 -32
q-100 0 -187 38q-88 37 -153 102t-102 153q-38 87 -38 187t38 187q37 87 102 152.5t153 102.5q87 38 187 38t187 -38q87 -37 152.5 -102t102.5 -153q38 -87 38 -187t-38 -187q-37 -87 -102 -152.5t-153 -102.5q-87 -38 -187 -38zM758 352q-31 17 -49 40.5t-18 52.5
q-2 29 12 55t43 47q2 3 4 5.5t2 7.5q0 2 -0.5 6t-2.5 7q-31 38 -66.5 49.5t-61.5 11.5q-15 0 -31 -2.5t-30 -7.5l-7.5 -3t-5.5 -3q-12 -5 -20.5 -7t-17.5 0q-3 0 -7 2t-6 5q-12 4 -31 10t-43 6q-12 0 -25.5 -2.5t-25.5 -7.5q-38 -12 -67.5 -43t-41.5 -72q-12 -43 -5.5 -95.5
t28.5 -103.5q9 -21 19 -40.5t22 -35.5q24 -34 48.5 -49t51.5 -15h4.5h4.5q12 0 21.5 3.5t17.5 5.5q7 3 14.5 5t17.5 5q19 2 31 -0.5t26 -9.5q10 -2 20 -6t22 -7q53 -9 98 48.5t62 105.5v3q7 15 1.5 21t-8.5 8v0zM611 202q-9 2 -18.5 4.5t-16.5 4.5q-17 7 -35 11t-42 -1
q-12 -3 -21.5 -7t-16.5 -6t-14.5 -4.5t-14.5 -5.5q-19 -2 -38.5 10.5t-38.5 41.5q-12 16 -21.5 33.5t-16.5 36.5q-19 43 -24 90.5t5 85.5q9 34 31.5 58.5t51.5 34.5q9 2 20.5 4t20.5 2q20 0 34.5 -5.5t26.5 -10.5q5 -2 9.5 -4t6.5 -2q17 -5 30.5 -2t30.5 8q2 3 6 3.5t7 3.5
q12 4 24 6.5t24 2.5q19 0 44 -6.5t49 -28.5q-29 -24 -43 -56t-12 -66q3 -33 21.5 -62.5t52.5 -49.5q-19 -43 -53.5 -86t-68.5 -38v0zM522 640v0q50 0 89 37.5t42 90.5v14.5v14.5q-3 2 -5.5 5.5t-7.5 3.5h-2h-4h-9.5t-6.5 -3q-41 -7 -78.5 -37.5t-40.5 -80.5v-18v-17
q5 -3 10 -6.5t13 -3.5zM538 688q0 31 26 53.5t57 29.5v-0.5v-2.5q-3 -34 -27.5 -61.5t-55.5 -34.5v9.5v6.5z" />
    <glyph glyph-name="uniE90E" unicode="&#xe90e;"
d="M138 416h832q19 0 31.5 14.5t12.5 33.5t-12.5 33.5t-31.5 14.5h-832l275 272q12 12 12 30.5t-12 30.5t-30.5 12t-30.5 -12l-352 -349q-12 -12 -12 -30.5t12 -30.5l349 -349q7 -7 14.5 -9.5t17.5 -2.5q7 0 16 2.5t16 9.5q12 12 12 29.5t-12 31.5l-275 269v0z" />
    <glyph glyph-name="uniE90F" unicode="&#xe90f;"
d="M0 464q0 -17 12.5 -32.5t29.5 -15.5h809l-259 -256q-12 -12 -12 -29t12 -29q7 -7 14.5 -9.5t14.5 -2.5t15.5 2.5t13.5 9.5l329 330q12 12 12 29t-12 29l-329 332q-12 12 -29 12t-29 -12t-12 -27t12 -27l259 -256h-809q-17 0 -29.5 -15.5t-12.5 -32.5v0z" />
    <glyph glyph-name="uniE910" unicode="&#xe910;"
d="M400 352l-336 -333v237q0 7 -4.5 11.5t-11.5 4.5t-11.5 -4.5t-4.5 -11.5v-272q0 -7 4.5 -11.5t11.5 -4.5h272q7 0 11.5 4.5t4.5 11.5t-4.5 11.5t-11.5 4.5h-230l329 330q5 4 5 10.5t-5 11.5t-9.5 5t-9.5 -5v0zM976 928h-272q-7 0 -11.5 -4.5t-4.5 -11.5t4.5 -11.5
t11.5 -4.5h237l-343 -342q-4 -5 -4 -11.5t4 -11.5q3 -2 5.5 -2.5t7.5 -0.5t8 0.5t5 2.5l336 339v-230q0 -7 4.5 -11.5t11.5 -4.5t11.5 4.5t4.5 11.5v272q0 7 -4.5 11.5t-11.5 4.5v0z" />
    <glyph glyph-name="uniE911" unicode="&#xe911;"
d="M1024 406v0q-54 0 -107 11t-102.5 31t-94.5 50t-83 68l-112 112l-109 -112q-38 -38 -83 -68q-46 -30 -95.5 -50t-101.5 -31q-53 -11 -107 -11h-29v-41h1024v41z" />
    <glyph glyph-name="uniE912" unicode="&#xe912;"
d="M829 301q-5 5 -11.5 5t-11.5 -5l-294 -295v922q0 7 -4.5 11.5t-11.5 4.5t-11.5 -4.5t-4.5 -11.5v-922l-291 292q-5 4 -11.5 4t-11.5 -4q-4 -5 -4 -11.5t4 -11.5l320 -320l2 -1.5t5 -1.5h3h3h3.5h3.5q2 0 3 1.5t3 1.5l320 320q0 5 -0.5 13t-2.5 13v0z" />
    <glyph glyph-name="uniE913" unicode="&#xe913;"
d="M992 448h-922l292 291q4 5 4 11.5t-4 11.5q-5 4 -11.5 4t-11.5 -4l-320 -320l-1.5 -2t-1.5 -5q-2 -2 -2 -6t2 -7q0 -2 1.5 -3t1.5 -3l320 -320h7h6t6 0.5t7 2.5q5 5 5 11.5t-5 11.5l-295 294h922q7 0 11.5 4.5t4.5 11.5t-4.5 11.5t-11.5 4.5v0z" />
    <glyph glyph-name="uniE914" unicode="&#xe914;"
d="M1008 426q2 2 2 6t-2 6q0 3 -1.5 3.5t-1.5 3.5l-320 320q-5 5 -11.5 5t-11.5 -5q-4 -5 -4 -11.5t4 -11.5l292 -291h-922q-7 0 -11.5 -4.5t-4.5 -11.5t4.5 -13t11.5 -6h922l-292 -291q-4 -5 -4 -11.5t4 -11.5q0 -4 4 -5t6 -1t6 0.5t7 2.5l320 320q0 3 0.5 3.5t2.5 3.5v0z
" />
    <glyph glyph-name="uniE915" unicode="&#xe915;"
d="M861 621l-320 320l-2 1.5t-5 1.5q-2 2 -6 2t-6 -2q-3 0 -3.5 -1.5t-3.5 -1.5l-320 -320q-5 -5 -5 -11.5t5 -11.5q5 -4 11.5 -4t11.5 4l294 292v-922q0 -7 4.5 -11.5t11.5 -4.5t11.5 4.5t4.5 11.5v922l291 -292q3 -2 5.5 -2.5t7.5 -0.5t7.5 0.5t5.5 2.5q2 3 2 10.5
t-2 12.5z" />
    <glyph glyph-name="uniE916" unicode="&#xe916;" horiz-adv-x="1216"
d="M1168 960h-1120q-19 0 -33.5 -14.5t-14.5 -33.5v-928q0 -19 14.5 -33.5t33.5 -14.5h1120q19 0 33.5 14.5t14.5 33.5v928q0 19 -14.5 33.5t-33.5 14.5zM1184 -16q0 -7 -4.5 -11.5t-11.5 -4.5h-1120q-7 0 -11.5 4.5t-4.5 11.5v928q0 7 4.5 11.5t11.5 4.5h1120
q7 0 11.5 -4.5t4.5 -11.5v-928zM560 448h-352q-19 0 -33.5 -14.5t-14.5 -33.5v-256q0 -19 14.5 -33.5t33.5 -14.5h352q19 0 33.5 14.5t14.5 33.5v256q0 19 -14.5 33.5t-33.5 14.5zM576 144q0 -7 -4.5 -11.5t-11.5 -4.5h-352q-7 0 -11.5 4.5t-4.5 11.5v256q0 7 4.5 11.5
t11.5 4.5h352q7 0 11.5 -4.5t4.5 -11.5v-256zM1008 800h-800q-19 0 -33.5 -14.5t-14.5 -33.5v-160q0 -19 14.5 -33.5t33.5 -14.5h800q19 0 33.5 14.5t14.5 33.5v160q0 19 -14.5 33.5t-33.5 14.5zM1024 592q0 -7 -4.5 -11.5t-11.5 -4.5h-800q-7 0 -11.5 4.5t-4.5 11.5v160
q0 7 4.5 11.5t11.5 4.5h800q7 0 11.5 -4.5t4.5 -11.5v-160zM1024 416h-320q-7 0 -11.5 -4.5t-4.5 -11.5t4.5 -11.5t11.5 -4.5h320q7 0 11.5 4.5t4.5 11.5t-4.5 11.5t-11.5 4.5zM1024 288h-320q-7 0 -11.5 -4.5t-4.5 -11.5t4.5 -11.5t11.5 -4.5h320q7 0 11.5 4.5t4.5 11.5
t-4.5 11.5t-11.5 4.5zM1024 160h-320q-7 0 -11.5 -4.5t-4.5 -11.5t4.5 -11.5t11.5 -4.5h320q7 0 11.5 4.5t4.5 11.5t-4.5 11.5t-11.5 4.5z" />
    <glyph glyph-name="uniE917" unicode="&#xe917;" horiz-adv-x="1088"
d="M835 208q-74 10 -91.5 46t-17.5 50q34 48 47 98t17 72q27 7 41 43.5t14 96.5q0 24 -7 41t-19 27q-5 2 -9.5 4.5t-9.5 4.5v45q0 5 3.5 11.5t6.5 14.5l3 3q9 19 19 70.5t-58 92.5q-81 48 -154.5 29.5t-113.5 -42.5q-12 -9 -26 -14t-29 -5h-48q-50 0 -82.5 -36t-32.5 -89
v-80q-5 0 -9.5 -2.5t-9.5 -6.5q-12 -10 -19 -27t-7 -41q0 -57 15.5 -94t42.5 -46q5 -22 17.5 -69t46.5 -95q0 -7 -4 -23.5t-19 -33.5q-12 -15 -33 -22t-50 -7h-1.5h-1.5q-71 -13 -120 -42q-48 -29 -78.5 -65.5t-44.5 -78.5q-13 -41 -13 -80q0 -7 4.5 -11.5t11.5 -4.5t11.5 6
t4.5 10q0 34 12 70t39 68.5t71 58.5q43 25 105 37q36 0 64 9.5t45 28.5q24 27 26.5 55.5l2.5 28.5q0 2 -0.5 4t-2.5 2q-39 55 -50 109l-11 54q0 7 -4.5 10t-11.5 3q-17 0 -28 31.5t-11 77.5q0 26 4 36l6 15q2 2 6 2.5l4 0.5q4 0 7 0.5t5 2.5q5 0 7.5 4t2.5 6v96
q0 43 23.5 69.5t59.5 26.5h48q19 0 38 5t36 17q36 22 100 39t133 -26q46 -26 42 -61.5t-16 -56.5l-3 -3q-5 -10 -9 -20t-4 -22v-64q0 -5 2 -7.5t4 -5.5q3 -2 7 -2.5t6 -0.5l3.5 -0.5t6.5 -2.5q5 -5 9 -16t4 -26q0 -48 -10.5 -78.5t-25.5 -30.5q-7 0 -11.5 -4t-4.5 -12
l-11 -57t-49 -112q-3 -3 -3.5 -5t-0.5 -5l15 -61t123 -73q62 -10 106 -34q43 -24 70 -55.5t39 -66.5q12 -36 12 -68q0 -7 4.5 -11.5t11.5 -4.5t11.5 4.5t4.5 11.5q-1 38 -15 79q-14 42 -44.5 78t-78.5 64q-48 27 -118 38v0z" />
    <glyph glyph-name="uniE918" unicode="&#xe918;" horiz-adv-x="1088"
d="M835 205q-31 5 -54 15t-35 26q-10 15 -13 28.5t-3 23.5q26 7 98 35.5t132 88.5q2 3 4 7.5t-1 8.5q0 5 -2.5 8t-6.5 5l-20 12q-20 11 -44.5 39.5t-46.5 76.5q-22 49 -27 122q-4 47 -23 93q-20 46 -54 83t-82 60q-49 23 -110 23t-109 -23q-49 -23 -83 -60t-53 -83
q-20 -46 -24 -93q-3 -73 -24 -122q-21 -48 -45.5 -76.5t-44.5 -39.5q-21 -12 -23 -12q-3 -2 -5 -4.5t-5 -4.5q0 -3 0.5 -7t2.5 -6q3 -3 54.5 -48.5t176.5 -86.5q-3 -16 -21 -47.5t-88 -38.5q-71 -11 -120 -38q-48 -27 -78.5 -62t-44.5 -75q-13 -41 -13 -78q0 -9 4.5 -14
t11.5 -5t11.5 4.5t4.5 11.5q0 32 12 67t39 66t71 55q43 23 105 33q111 12 124.5 70.5t13.5 60.5q0 5 -4 9t-9 4q-91 29 -141.5 62t-69.5 50q31 19 80.5 80t56.5 189q3 42 19 83q17 41 47 73.5t73 53.5q43 20 98 20q54 0 97 -20q43 -21 73 -53.5t48 -73.5q17 -41 19 -83
q7 -125 56.5 -187.5t77.5 -81.5q-64 -58 -136 -82t-75 -24q-5 0 -7.5 -4t-5.5 -9q0 -2 0.5 -28.5t22.5 -57.5q17 -24 45 -37t67 -17q62 -10 105 -34q44 -24 71 -55t39 -66t12 -66q0 -7 4.5 -11.5t11.5 -4.5t11.5 4.5t4.5 11.5q0 38 -13 79q-14 41 -44 76.5t-78 62.5t-118 38
z" />
    <glyph glyph-name="uniE919" unicode="&#xe919;" horiz-adv-x="736"
d="M368 810q-43 0 -81 -17q-38 -16 -66 -44t-45 -66q-16 -38 -16 -81q0 -44 16 -81q17 -38 45 -66.5t66 -44.5t81 -16t81 16t66 44.5t45 65.5q16 38 16 82q0 43 -16 81q-17 38 -45 66t-66 44q-38 17 -81 17zM368 426q-72 0 -124 52t-52 124t52 124t124 52t124 -52t52 -124
t-52 -124t-124 -52zM691 730q5 21 2.5 40t-11.5 33q-10 15 -26.5 24t-37.5 11q-8 46 -37.5 66.5t-74.5 10.5q-24 39 -62 47t-76 -18q-38 26 -76 19t-62 -48q-43 12 -73.5 -9t-38.5 -64q-21 -3 -37.5 -12t-26.5 -24q-9 -16 -11.5 -35.5t2.5 -40.5q-19 -12 -31 -27t-17 -34
t0 -38.5t19 -38.5q-14 -19 -19 -38.5t0 -38.5q5 -17 17 -33t31 -28q-5 -21 -2.5 -40t11.5 -33q10 -15 26.5 -24t37.5 -11q8 -46 37.5 -66.5t74.5 -10.5q24 -39 62 -47t76 18q14 -10 30 -16t31 -6q24 0 43 12t34 36q45 -10 74.5 10.5t37.5 65.5q21 3 37.5 12t26.5 24
q9 14 11.5 33t-2.5 40q19 12 31 27t17 34t0 38.5t-19 38.5q14 19 19 38t0 39q-5 21 -17 36.5t-31 27.5v0zM688 582q14 -16 19.5 -31t2.5 -29q-2 -17 -15.5 -27.5t-25.5 -17.5q-5 -3 -7.5 -9t-2.5 -10q5 -12 6 -29.5t-9 -31.5q-10 -15 -25 -19t-29 -7q-8 0 -12 -4.5t-4 -11.5
q-3 -21 -13 -41t-39 -20q-7 0 -14.5 2t-17.5 5q-4 2 -10 -0.5t-9 -9.5q-7 -14 -20 -27.5t-34 -13.5q-12 0 -24.5 5t-26.5 17q-3 2 -5.5 2.5t-4.5 0.5t-4.5 -0.5t-5.5 -2.5q-14 -12 -26.5 -17t-24.5 -5q-19 0 -33 13.5t-21 27.5q-3 5 -9 7.5t-10 2.5q-10 -3 -17.5 -5
t-14.5 -2q-32 0 -42 21t-10 40q0 7 -4 11.5t-12 4.5q-14 0 -29 5.5t-25 20.5q-10 14 -8 30t5 31q2 4 -0.5 10t-9.5 9q-12 7 -25.5 17.5t-15.5 27.5q-3 14 2.5 29t19.5 31q5 5 5 10t-5 10q-12 16 -17 31t-2 29q2 17 15.5 27.5t25.5 17.5q5 3 7.5 9t2.5 10q-5 12 -7.5 29.5
t7.5 31.5q10 15 25 19t29 7q8 0 12 4.5t4 11.5q3 21 13 41t39 20q7 0 14.5 -2t17.5 -5q4 -2 10 0.5t9 9.5q7 14 20 27.5t34 13.5q12 0 24.5 -5t26.5 -17q5 -5 10 -5t10 5q14 12 26.5 17t24.5 5q19 0 33 -13.5t21 -27.5q3 -5 9 -7.5t10 -2.5q10 3 17.5 5t14.5 2q32 0 42 -21
t10 -40q0 -7 4 -11.5t12 -4.5q14 0 29 -5.5t25 -20.5q10 -14 8 -30t-5 -31q-2 -4 0.5 -10t9.5 -9q12 -7 25.5 -17.5t15.5 -27.5q3 -14 -2.5 -29t-19.5 -31q-5 -5 -5 -10t5 -10v0zM160 224q-7 0 -11.5 -4.5t-4.5 -11.5v-221q0 -14 7 -25.5t22 -15.5q14 -8 29.5 -6t27.5 12
l138 109l141 -109q7 -5 16 -9t16 -4t12.5 2t12.5 5q12 7 20.5 18.5t8.5 25.5v224q0 8 -4.5 12t-11.5 4t-11.5 -4t-4.5 -12v-224q0 -7 -3.5 -10t-5.5 -6q-5 -2 -11.5 -1.5t-11.5 5.5l-64 51v118q0 7 -4.5 11.5t-11.5 4.5t-11.5 -4.5t-4.5 -11.5v-96l-54 42q-5 2 -10 2t-9 -2
l-55 -42v93q0 7 -4.5 11.5t-11.5 4.5t-11.5 -4.5t-4.5 -11.5v-118l-64 -48q-7 -8 -14 -8.5t-11 1.5q-3 0 -6.5 4.5t-3.5 11.5v221q0 7 -4.5 11.5t-11.5 4.5zM458 691l-112 -147l-71 70q-5 5 -11 5t-11 -5q-5 -4 -5 -10.5t5 -11.5l83 -80q2 -2 5 -1t8 1v0v0q2 0 6 0.5t7 2.5
l121 160q5 5 3.5 11.5t-6.5 11.5q-5 2 -11.5 1t-10.5 -8v0z" />
    <glyph glyph-name="uniE91A" unicode="&#xe91a;" horiz-adv-x="704"
d="M704 608q0 73 -28 137q-27 64 -74.5 112t-112.5 75q-64 28 -137 28t-137 -28q-65 -27 -112.5 -74.5t-74.5 -112.5q-28 -64 -28 -137q0 -43 10 -84q10 -40 28 -76t44 -67t59 -55l-112 -294q-3 -5 -1 -9.5t4 -6.5t6.5 -4t9.5 -2l122 22l83 -90q0 -2 3.5 -4t5.5 -2h2h2
q4 0 7 3.5t5 6.5l87 224l86 -224q3 -5 5.5 -7.5t7.5 -2.5h1.5h1.5q3 0 7 2t6 4l83 90l125 -19q5 0 9.5 0.5t6.5 5.5q2 3 2.5 7t0.5 9l-118 304q50 48 82.5 117.5t32.5 151.5v0zM32 608q0 66 25 124t68.5 101.5t102.5 69.5q58 25 124 25t124 -25t101.5 -68.5t69.5 -102.5
q25 -58 25 -124t-25 -124t-68.5 -101.5t-102.5 -69.5q-58 -25 -124 -25t-124 25t-101.5 68.5t-69.5 102.5q-25 58 -25 124zM320 253l19 -35l-86 -234l-71 77q0 2 -3.5 2.5t-5.5 0.5l-106 -16l99 262q36 -21 74 -34.5t83 -16.5l-3 -6v0v0v0zM659 48l-105 16q-5 0 -8 -1t-5 -5
l-71 -77l-105 275q53 2 100.5 18.5t88.5 45.5l105 -272v0zM528 608q0 72 -52 124t-124 52t-124 -52t-52 -124t52 -124t124 -52t124 52t52 124zM208 608q0 60 42 102t102 42t102 -42t42 -102t-42 -102t-102 -42t-102 42t-42 102z" />
    <glyph glyph-name="uniE91B" unicode="&#xe91b;" horiz-adv-x="736"
d="M0 -16q0 -14 7 -25.5t19 -16.5q4 -2 10.5 -4t11.5 -2q7 0 14.5 2.5t14.5 7.5l291 214l291 -214q12 -8 25.5 -9.5t25.5 5.5q12 8 19 19t7 23v624q0 7 -4.5 11.5t-11.5 4.5t-11.5 -4.5t-4.5 -11.5v-624q0 -5 -2.5 -9t-7.5 -4q-4 -2 -8.5 -2t-7.5 2l-300 221q-5 2 -10 2
t-10 -2l-300 -221q-5 -2 -8.5 -2t-7.5 2q-5 0 -7.5 4t-2.5 9v624q0 7 -4.5 11.5t-11.5 4.5t-11.5 -4.5t-4.5 -11.5v-624v0zM48 672h640q19 0 33.5 14.5t14.5 33.5v192q0 19 -14.5 33.5t-33.5 14.5h-640q-19 0 -33.5 -14.5t-14.5 -33.5v-192q0 -19 14.5 -33.5t33.5 -14.5z
M32 912q0 7 4.5 11.5t11.5 4.5h640q7 0 11.5 -4.5t4.5 -11.5v-192q0 -7 -4.5 -11.5t-11.5 -4.5h-640q-7 0 -11.5 4.5t-4.5 11.5v192z" />
    <glyph glyph-name="uniE91C" unicode="&#xe91c;" horiz-adv-x="864"
d="M538 502q-16 72 -18 149t2 141t10 106t6 43q0 2 -0.5 6t-3.5 7q-2 2 -4.5 4t-4.5 2h-192q-5 0 -8 -2t-5 -4q-2 -3 -4 -7t1 -6q0 -1 5 -35q6 -35 9.5 -94t1.5 -139t-16 -174q0 -2 0.5 -6t2.5 -7q2 -2 5 -4t8 -2h192v0v0q7 0 11.5 4.5t4.5 11.5q0 2 -1.5 4l-1.5 2v0z
M502 512h-153q11 76 13 142q3 67 1 121t-6 93q-5 40 -8 60h153q-2 -23 -7 -67q-5 -45 -7 -101.5t0 -120.5q2 -65 14 -127zM320 -58q2 -2 5 -4t8 -2h192v0v0q7 0 11.5 4.5t4.5 11.5q0 2 -0.5 4t-2.5 2q-16 72 -18 149t2 141t10 106t6 43q0 2 -0.5 6t-3.5 7q-2 2 -5 4t-7 2
h-192q-5 0 -8 -2t-5 -4q-3 -3 -3 -7v-6q0 -1 5 -35q5 -35 9 -94t2 -139t-16 -174q0 -5 2 -7.5t4 -5.5v0zM352 384h154q-4 -23 -9 -67q-5 -45 -7 -101.5t1 -120.5q3 -65 15 -127h-154q11 76 13 142q2 67 0 121t-6 93q-5 40 -7 60zM285 483q2 3 4 5.5t2 7.5l-3 25
q-2 25 -17 59t-46 69q-31 34 -87 52h-7h-6q-3 -3 -5 -5.5t-2 -7.5l12 -76.5t139 -131.5h3h3q3 0 5 0.5t5 2.5zM147 662q58 -26 81 -69t28 -71q-67 36 -86.5 76t-22.5 64zM115 518q-26 0 -50.5 -6.5t-48.5 -18.5q-2 -3 -4.5 -5t-5.5 -5q0 -2 0.5 -6t3.5 -7q2 -2 37 -33
t107 -31q26 0 54.5 6.5t57.5 16.5q4 2 6.5 5t2.5 8q0 4 -0.5 7.5t-2.5 8.5q-5 2 -47.5 31t-109.5 29v0zM154 438q-39 0 -65 12t-38 24q17 7 33.5 9.5t30.5 2.5q36 0 64 -11.5t45 -23.5q-19 -5 -36.5 -9t-33.5 -4zM570 870q-3 -2 -5 -5t-2 -7l3 -26q3 -25 17.5 -59t45.5 -68
t88 -52h3h3q3 0 5 0.5t5 2.5l1.5 2.5t1.5 7.5l-11.5 76t-138.5 132q-5 0 -9.5 -0.5t-6.5 -3.5v0zM704 691q-58 27 -81 69.5t-28 71.5q67 -36 87 -76.5t22 -64.5zM739 835q27 0 55 7t54 19l4.5 4.5t5.5 4.5q0 3 -0.5 7t-3.5 6q-2 3 -39 33.5t-114 30.5q-29 0 -58 -5t-61 -17
q-4 -3 -6.5 -5.5t-2.5 -7.5t0.5 -8t5.5 -8q-2 -2 43 -31.5t117 -29.5v0v0v0zM701 915q43 0 70 -11.5t42 -23.5q-17 -7 -36 -10t-38 -3v0q-38 0 -70 11.5t-51 23.5q21 5 42.5 9t40.5 4z" />
    <glyph glyph-name="uniE91D" unicode="&#xe91d;"
d="M512 960q-106 0 -199 -40q-93 -41 -162.5 -110.5t-110.5 -162.5q-40 -93 -40 -199t40 -199q41 -93 110.5 -162.5t162.5 -110.5q93 -40 199 -40t199 40q93 41 162.5 110.5t110.5 162.5q40 93 40 199t-40 199q-41 93 -110.5 162.5t-162.5 110.5q-93 40 -199 40zM992 448
q0 -17 -2 -35.5t-4 -34.5q-63 2 -122 18q-58 15 -111.5 42t-99.5 63q-46 37 -83 81q52 44 100 77q48 34 87 58t66 38q27 15 38 19q31 -31 55 -68q25 -37 41.5 -78t25.5 -87q9 -45 9 -93v0zM838 800q-15 -8 -44 -24q-28 -16 -65.5 -39.5t-82.5 -55.5q-44 -32 -92 -73
q-24 34 -44 70q-20 37 -34 76t-22 81t-9 87q14 2 32 4t35 2q47 0 91 -9q45 -8 86.5 -24.5t78.5 -40.5q38 -24 70 -54v0zM410 918q2 -45 11 -89t23.5 -85.5t34.5 -79.5q21 -38 46 -72q-43 -38 -88.5 -82t-90.5 -94q-34 24 -70 43q-37 19 -76 33t-80 22q-42 8 -85 11
q13 72 47 136q33 64 82 115.5t111 88.5q63 37 135 53v0zM35 490q82 -3 157 -29.5t138 -70.5q-48 -57 -91 -123.5t-79 -138.5q-30 31 -54 68q-24 36 -40.5 76.5t-24.5 84.5q-9 44 -9 91q0 10 0.5 21t2.5 21v0zM182 102q18 39 39 75q20 36 42 69.5t45 64.5t47 60
q45 -36 80 -80q36 -45 61.5 -96t40.5 -107q14 -57 17 -117q-10 -2 -21 -2.5t-21 -0.5q-48 0 -93 9q-46 10 -87.5 27t-79.5 42q-37 25 -70 56v0zM586 -26q-3 64 -19 123q-15 60 -42.5 113.5t-65.5 99.5t-85 84q41 48 85.5 90.5t87.5 78.5q40 -48 88 -86q48 -39 103.5 -67
t116.5 -44q61 -17 127 -20q-15 -72 -52 -135q-36 -63 -88.5 -112t-117.5 -81q-65 -33 -138 -44v0z" />
    <glyph glyph-name="uniE91E" unicode="&#xe91e;" horiz-adv-x="1120"
d="M352 160q7 0 11.5 4.5t4.5 11.5t-4.5 11.5t-11.5 4.5h-304q-7 0 -11.5 4.5t-4.5 11.5v480q0 7 4.5 11.5t11.5 4.5h304q7 0 11.5 4.5t4.5 11.5t-4.5 11.5t-11.5 4.5h-304q-19 0 -33.5 -14.5t-14.5 -33.5v-480q0 -19 14.5 -33.5t33.5 -14.5h304zM992 576v112
q0 19 -14.5 33.5t-33.5 14.5h-304q-7 0 -11.5 -4.5t-4.5 -11.5t4.5 -11.5t11.5 -4.5h304q7 0 11.5 -4.5t4.5 -11.5v-480q0 -7 -4.5 -11.5t-11.5 -4.5h-336q-7 0 -11.5 -4.5t-4.5 -11.5t4.5 -11.5t11.5 -4.5h336q19 0 33.5 14.5t14.5 33.5v80h80q19 0 33.5 14.5t14.5 33.5
v192q0 19 -14.5 33.5t-33.5 14.5h-80zM1088 528v-192q0 -7 -4.5 -11.5t-11.5 -4.5h-80v224h80q7 0 11.5 -4.5t4.5 -11.5zM413 -54h3h3q5 0 8 2t5 7l342 602q3 5 3 8t-3 8q-2 5 -6 5.5t-6 0.5h-228l100 371q2 5 -1.5 11t-8.5 9q-5 2 -11 0t-8 -7l-371 -553q-3 -5 -3 -9.5
t3 -6.5q2 -5 6 -7.5t6 -2.5h253l-99 -422q0 -5 4 -9.5t9 -6.5v0zM538 397q0 2 -0.5 6t-3.5 7q-2 2 -5 4t-7 2h-244l298 448l-80 -298q0 -2 0.5 -6t2.5 -6q3 -3 7 -6.5t6 -3.5h221l-272 -480l77 333v0z" />
    <glyph glyph-name="uniE91F" unicode="&#xe91f;" horiz-adv-x="1248"
d="M1248 -48q0 7 -4.5 11.5t-11.5 4.5h-346l87 234v0v0q24 7 45 19t38 29l125 115q5 5 5 11t-5 11t-11.5 5t-11.5 -5l-124 -115q-27 -26 -61.5 -38.5t-73.5 -12.5h-515v0v0h-0.5h-2.5q-39 0 -74 -13.5t-64 -34.5l-137 -109q-8 -2 -8 -8t4 -11q3 -3 5.5 -5t7.5 -2q3 0 5 0.5
t5 3.5l137 105q22 17 46 26.5t50 12.5l-83 -218h-259q-7 0 -11.5 -4.5t-4.5 -11.5t4.5 -11.5t11.5 -4.5h1216q7 0 11.5 4.5t4.5 11.5zM934 195l-83 -227h-253l84 224h220q8 0 16.5 0.5t15.5 2.5v0zM394 192h252l-83 -224h-253zM832 960q-44 0 -90 -8q-45 -8 -88.5 -23.5
t-82.5 -37.5t-72 -49q-7 -8 -11 -19t-2 -23q3 -12 10 -22.5t19 -12.5l320 -122l-150 -349q-3 -7 -0.5 -12t9.5 -10h3.5h3.5q5 0 9 2.5t7 7.5l150 352l320 -122q5 -2 9.5 -2.5t6.5 -0.5q10 0 19 4.5t16 11.5q8 7 10.5 16t2.5 19q-7 88 -42 161q-35 74 -90.5 127t-129.5 82
q-73 30 -157 30v0zM1216 544q-2 -2 -5 -4t-8 -2h-3h-3l-672 252q-5 3 -7.5 5.5t-2.5 7.5q0 3 0.5 7t2.5 6q32 26 69 47t77.5 35.5t82.5 21.5q43 8 85 8q78 0 146 -27q67 -28 118.5 -77.5t83.5 -118.5t39 -151q3 -3 1 -5.5t-4 -4.5z" />
    <glyph glyph-name="uniE920" unicode="&#xe920;"
d="M912 256h-16v192q0 72 -25 136t-68.5 114t-102.5 83q-59 34 -127 45q9 9 14 23t5 31q0 34 -23 57t-57 23t-57 -23t-23 -57q0 -14 5 -28t14 -26q-68 -11 -127 -45q-59 -33 -102.5 -83t-68.5 -114t-25 -136v-192h-16q-46 0 -79 -33t-33 -79t33 -79t79 -33h288
q5 -41 37 -68.5t75 -27.5t74 27.5t38 68.5h288q46 0 79 33t33 79t-33 79t-79 33zM512 928q19 0 33.5 -14.5t14.5 -33.5t-14.5 -33.5t-33.5 -14.5t-33.5 14.5t-14.5 33.5t14.5 33.5t33.5 14.5zM912 64h-304q-7 0 -11.5 -4.5t-4.5 -11.5q0 -34 -23 -57t-57 -23t-57 23t-23 57
q0 7 -4.5 11.5t-11.5 4.5h-304q-34 0 -57 23t-23 57t23 57t57 23h80q7 0 11.5 4.5t4.5 11.5t-4.5 11.5t-11.5 4.5h-32v192q0 73 28 137q27 64 74.5 112t112.5 75q64 28 137 28t137 -28q64 -27 112 -74.5t75 -112.5q28 -64 28 -137v-192h-32q-7 0 -11.5 -4.5t-4.5 -11.5
t4.5 -11.5t11.5 -4.5h80q34 0 57 -23t23 -57t-23 -57t-57 -23zM525 723q-58 0 -109 -22t-89.5 -60t-60.5 -89q-23 -52 -23 -110q0 -8 4.5 -12t11.5 -4t11.5 4t4.5 12q0 51 20 97q19 45 53 79t80 54q45 19 97 19q7 0 11.5 4.5t4.5 11.5t-4.5 11.5t-11.5 4.5v0z" />
    <glyph glyph-name="uniE921" unicode="&#xe921;" horiz-adv-x="1696"
d="M1360 602q-29 0 -55.5 -5t-53.5 -15l-25 64q49 18 99 24q51 5 100.5 -1.5t96.5 -24.5q48 -19 91 -49q2 -2 4.5 -2.5t4.5 -0.5q5 0 8 2t5 4q5 5 3.5 11.5t-6.5 11.5q-46 32 -96 52q-51 20 -104.5 26.5t-108.5 0.5q-54 -6 -107 -25l-109 253h141q7 0 11.5 4.5t4.5 11.5
t-4.5 11.5t-11.5 4.5h-163q-5 0 -8 -2t-5 -4q-2 -3 -2 -7.5t2 -8.5l96 -234h-496v128h64q7 0 11.5 4.5t4.5 11.5t-4.5 11.5t-11.5 4.5h-160q-7 0 -11.5 -4.5t-4.5 -11.5t4.5 -11.5t11.5 -4.5h64v-128q-2 0 -6 -2t-4 -4l-51 -68q-67 45 -143 63t-151.5 10.5t-146.5 -40.5
t-128 -90q-5 -5 -5 -11.5t5 -11.5q2 -2 5 -2.5t7 -0.5q3 0 7 0.5t6 2.5q53 53 119 84q65 30 135.5 37t140.5 -9q71 -16 133 -57l-41 -55q-39 27 -85.5 41t-97.5 14q-71 -1 -132 -28q-62 -27 -108 -73t-73 -108q-26 -61 -26 -130q0 -70 26 -131q27 -61 72.5 -107t106.5 -72
t131 -26q68 0 129 25q60 25 105 69t72 104q28 60 30 128h192v0v0q2 0 3 0.5t3 2.5v0v0q3 0 3.5 1.5t3.5 1.5v0v0l307 407l38 -96q-43 -21 -79 -52q-37 -31 -63 -70.5t-41 -86.5t-15 -98q0 -70 26 -131q27 -61 72.5 -107t106.5 -72t131 -26t131 26q61 27 106.5 73t72.5 107
q26 61 26 130q0 68 -26 129q-27 61 -72.5 107t-106.5 73t-131 27v0zM643 662l195 -374h-166q-5 74 -39 137t-89 106l99 131v0zM640 288h-278l163 218q48 -39 79 -95t36 -123zM336 -38q-62 0 -118 24q-55 24 -96.5 65.5t-65.5 96.5t-24 118q0 62 24 117q24 56 65.5 97
t96.5 65q56 25 118 25q46 0 86.5 -12t76.5 -36l-182 -244q-3 -4 -3 -8.5t3 -7.5q2 -4 6 -6.5t7 -2.5h310q-2 -60 -27 -113t-66 -92.5t-96 -62.5q-54 -23 -115 -23v0zM867 301l-192 371h471l-279 -371v0zM1360 -38q-62 0 -118 24q-55 24 -96.5 65.5t-65.5 96.5t-24 118
q0 45 13 87t37 77.5t57 64.5q33 28 72 46l119 -285q2 -5 6.5 -7.5t9.5 -2.5h3h3q7 3 9.5 9.5t0.5 13.5l-119 285q22 7 47 11.5t49 4.5q63 0 118 -25q55 -24 96.5 -65t65.5 -97q24 -55 24 -117q0 -63 -24 -118q-25 -55 -67 -96.5t-98 -65.5t-118 -24v0z" />
    <glyph glyph-name="uniE922" unicode="&#xe922;"
d="M976 960h-928q-19 0 -33.5 -14.5t-14.5 -33.5v-256q0 -19 14.5 -33.5t33.5 -14.5h928q19 0 33.5 14.5t14.5 33.5v256q0 19 -14.5 33.5t-33.5 14.5zM992 656q0 -7 -4.5 -11.5t-11.5 -4.5h-928q-7 0 -11.5 4.5t-4.5 11.5v256q0 7 4.5 11.5t11.5 4.5h928q7 0 11.5 -4.5
t4.5 -11.5v-256zM1008 560q-7 0 -11.5 -4.5t-4.5 -11.5v-560q0 -7 -4.5 -11.5t-11.5 -4.5h-928q-7 0 -11.5 4.5t-4.5 11.5v560q0 7 -4.5 11.5t-11.5 4.5t-11.5 -4.5t-4.5 -11.5v-560q0 -19 14.5 -33.5t33.5 -14.5h928q19 0 33.5 14.5t14.5 33.5v560q0 7 -4.5 11.5t-11.5 4.5
zM432 96q19 0 33.5 14.5t14.5 33.5v256q0 19 -14.5 33.5t-33.5 14.5h-256q-19 0 -33.5 -14.5t-14.5 -33.5v-256q0 -19 14.5 -33.5t33.5 -14.5h256zM160 144v256q0 7 4.5 11.5t11.5 4.5h256q7 0 11.5 -4.5t4.5 -11.5v-256q0 -7 -4.5 -11.5t-11.5 -4.5h-256q-7 0 -11.5 4.5
t-4.5 11.5zM576 384h288q7 0 11.5 4.5t4.5 11.5t-4.5 11.5t-11.5 4.5h-288q-7 0 -11.5 -4.5t-4.5 -11.5t4.5 -11.5t11.5 -4.5zM576 256h288q7 0 11.5 4.5t4.5 11.5t-4.5 11.5t-11.5 4.5h-288q-7 0 -11.5 -4.5t-4.5 -11.5t4.5 -11.5t11.5 -4.5zM576 128h288q7 0 11.5 4.5
t4.5 11.5t-4.5 11.5t-11.5 4.5h-288q-7 0 -11.5 -4.5t-4.5 -11.5t4.5 -11.5t11.5 -4.5z" />
    <glyph glyph-name="uniE923" unicode="&#xe923;" horiz-adv-x="608"
d="M304 451v-9l-298 -288q-4 -5 -4 -13t4 -13q5 -5 11.5 -5t11.5 5l275 266v-410q0 -14 8.5 -27t20.5 -18q5 -2 9.5 -2.5t9.5 -0.5q10 0 19 4.5t16 11.5l199 208q14 14 13 33.5t-13 33.5l-228 218l228 221q14 14 14.5 33t-11.5 34l-199 211q-9 12 -24 15t-27 -2
q-14 -5 -23 -18t-9 -27v-416l-278 262q-5 5 -11.5 5t-11.5 -5q-4 -4 -4 -10.5t4 -11.5l298 -285v0zM336 912q0 7 3.5 10.5t6.5 5.5h2h4t5 -1t8 -5l198 -212q5 -4 5 -10.5t-5 -11.5l-224 -218v442h-3zM336 419l224 -217q5 -5 5 -11.5t-5 -11.5l-198 -208q-5 -5 -10.5 -4
l-5.5 1q-3 0 -6.5 3t-3.5 13v435z" />
    <glyph glyph-name="uniE924" unicode="&#xe924;"
d="M1024 336v576q0 19 -14.5 33.5t-33.5 14.5h-928q-19 0 -33.5 -14.5t-14.5 -33.5v-576q0 -19 14.5 -33.5t33.5 -14.5h128l-160 -330q-2 -4 0 -10.5t6 -11.5h3.5h3.5q5 0 9 2.5t7 7.5l160 332q2 3 2 5.5t-2 4.5h640v-4.5v-5.5l128 -332q2 -5 6.5 -7.5t9.5 -2.5h3h3
q7 2 9.5 8t0.5 11l-128 330h96q21 2 36 17t15 34v0zM48 320q-7 0 -11.5 4.5t-4.5 11.5v576q0 7 4.5 11.5t11.5 4.5h928q7 0 11.5 -4.5t4.5 -11.5v-576q0 -7 -4.5 -11.5t-11.5 -4.5h-928z" />
    <glyph glyph-name="uniE925" unicode="&#xe925;" horiz-adv-x="1056"
d="M22 349q8 2 10.5 8t2.5 11l-2 69t53 136q3 2 3.5 6.5t0.5 9.5l-14.5 66t23.5 126q27 41 77 63t125 30q2 0 4.5 1.5t4.5 1.5l32 22.5t68 25.5q7 0 11.5 5.5t4.5 10.5t-4.5 12t-11.5 7q-39 -2 -72.5 -23.5t-43.5 -30.5q-79 -5 -134 -31.5t-86 -74.5q-39 -62 -31.5 -126
t15.5 -88q-58 -75 -56.5 -147.5t1.5 -76.5q3 -5 7.5 -9t11.5 -4q-2 0 -1 0h1v0zM266 -58q2 -2 5 -4t7 -2q3 0 5.5 0.5t4.5 2.5q5 5 5 11.5t-5 11.5q-17 19 -17 68t7 85q0 3 -2 52.5t-23 104.5q-15 38 -19 82t-4 68v8.5v7.5q0 8 -4 12t-12 4q-7 0 -11.5 -4t-4.5 -12v-4v-12
q-2 -72 -31 -122l-29 -50q-5 -5 -3.5 -11.5t6.5 -11.5t11 -3t11 6q3 3 17 25.5t28 61.5q2 -15 6.5 -29t9.5 -26q19 -50 22.5 -95l3.5 -45q-5 -12 -10.5 -79t26.5 -101v0zM982 800q-28 46 -83.5 72t-136.5 34q-12 9 -44.5 30.5t-71.5 23.5q-7 0 -11.5 -4.5t-4.5 -11.5
t4.5 -11.5t11.5 -4.5q36 -2 68 -25l32 -23q2 -2 4.5 -2.5t4.5 -0.5q75 -5 125 -28.5t77 -64.5q38 -62 25 -127.5t-16 -67.5q-2 -5 -0.5 -9.5t4.5 -6.5q55 -67 53 -136l-2 -69q-3 -7 1 -12t12 -7h1.5h1.5q5 0 9 4t7 9q0 4 1.5 76.5t-56.5 147.5q8 24 15.5 89t-31.5 125v0z
M848 317q14 -39 28 -61.5t17 -25.5q5 -4 11 -6t11 3t6.5 11.5t-3.5 11.5l-29 50t-31 122v12v4q0 8 -4.5 12t-11.5 4q-8 0 -12 -4t-4 -12v-7.5v-8.5q0 -21 -4 -66.5t-19 -83.5q-21 -55 -23 -105t-2 -55q7 -34 7 -82.5t-17 -67.5q-5 -5 -5 -11.5t5 -11.5q2 -2 4.5 -2.5
t5.5 -0.5q2 0 6 2t6 4q32 34 27 100.5t-7 75.5l2 47t23 97q5 12 8 26t5 29zM851 627q-7 0 -11.5 -4.5t-4.5 -11.5q0 -65 -48 -112.5t-115 -47.5q-38 0 -72.5 16.5t-58.5 47.5q-5 5 -13 5t-13 -5q-24 -31 -58.5 -47.5t-72.5 -16.5q-67 0 -115 46.5t-48 113.5q0 7 -4.5 11.5
t-11.5 4.5t-11.5 -4.5t-4.5 -11.5q0 -39 15 -74t41.5 -61t62.5 -42q35 -15 76 -15t78 16t66 45q26 -29 63.5 -45t80.5 -16q40 0 75 15t62 41.5t43 61.5q15 35 15 74q0 7 -4.5 11.5t-11.5 4.5zM669 787q-39 -9 -78.5 -34t-56.5 -39q-45 40 -92 56.5t-52 16.5q-7 3 -11.5 -1
t-7.5 -12q-2 -7 2 -11.5t11 -7.5l48.5 -16.5t89.5 -60.5q2 -2 5 -4t7 -2q3 0 5.5 0.5t4.5 2.5l45.5 32.5t88.5 44.5q8 2 10.5 7t2.5 12q-2 10 -8.5 14.5t-13.5 1.5z" />
    <glyph glyph-name="uniE926" unicode="&#xe926;" horiz-adv-x="832"
d="M483 928q41 0 68.5 -25.5t27.5 -64.5q0 -48 28.5 -76.5t74.5 -28.5q45 0 73.5 28.5t28.5 73.5q0 7 2 21t14 14q7 0 11.5 4.5t4.5 11.5q0 8 -4.5 12t-11.5 4t-27.5 -9.5t-20.5 -57.5q0 -33 -18.5 -51.5t-51.5 -18.5q-34 0 -52.5 20t-18.5 53q0 51 -37.5 86.5t-90.5 35.5
q-55 0 -93 -35.5t-38 -86.5v-70v-1.5v-1.5q-38 -10 -64.5 -39t-31.5 -70q-59 -23 -110 -67q-52 -44 -85.5 -102.5t-45.5 -129.5q-11 -70 11 -146q16 -61 51 -112q35 -50 82.5 -86.5t104.5 -56.5q58 -20 120 -20v0v0h8h8q76 4 141 34t113.5 79.5t76.5 116.5q27 66 27 141
q0 63 -21 118q-21 56 -55 101t-79 79q-44 33 -91 51q-5 48 -39.5 80t-82.5 32h-6v70q0 44 31.5 67t67.5 23zM387 736q39 0 66 -27t27 -66q0 -5 2.5 -9t7.5 -7q43 -15 85 -46q42 -30 75 -72t53 -94t20 -111q0 -68 -25 -129q-25 -60 -69.5 -105.5t-103.5 -73.5
q-60 -28 -128 -31h-7h-6v0v0q-56 0 -109 18t-96.5 51.5t-76.5 80.5q-32 46 -48 103q-19 70 -7 136t45 120.5t82 94.5q49 41 104 61q5 0 7.5 4t2.5 9q0 39 27 66t66 27h6v0zM272 547q-49 -24 -84 -63q-34 -40 -51.5 -87.5t-15.5 -99.5q2 -53 26 -102q3 -5 7 -7t9 -2h5t2 3
q7 2 9.5 8.5t-0.5 13.5q-20 43 -22 89t13 87.5t45 76.5q30 34 73 54q7 3 9.5 9.5t0.5 13.5q-5 5 -12 7t-14 -1z" />
    <glyph glyph-name="uniE927" unicode="&#xe927;" horiz-adv-x="1088"
d="M602 656q2 0 6 0.5t6 2.5l55 55q2 4 2 10.5t-2 11.5q-3 5 -10.5 5t-12.5 -5l-54 -54q-5 -5 -5 -11.5t5 -11.5q0 -2 3.5 -2.5t6.5 -0.5zM326 486q3 0 7 0.5t6 3.5q5 4 5 10.5t-5 11.5l-54 54q-5 5 -11.5 5t-11.5 -5q-4 -4 -4 -10.5t4 -11.5l55 -54q0 -3 3.5 -3.5t5.5 -0.5
v0zM474 237l-55 -55q-5 -4 -5 -10.5t5 -11.5q3 -2 5.5 -2.5t7.5 -0.5t7.5 0.5t5.5 2.5l54 54q5 5 5 11.5t-5 11.5t-13 5t-12 -5zM1037 461q-7 7 -16.5 10t-18.5 6q0 9 -4.5 18.5t-11.5 16.5q-8 7 -17 10.5t-19 5.5q0 10 -4 19t-12 16q-7 7 -16 10.5t-19 5.5q0 10 -4.5 19
t-11.5 16q-7 8 -14.5 10.5t-17.5 2.5l-144 144q10 17 7.5 38t-16.5 36l-106 105q-14 15 -35 15t-35 -15q-3 -12 -6.5 -20t-3.5 -18q-10 0 -19 -4.5t-16 -11.5t-10.5 -16.5t-5.5 -18.5q-10 0 -19 -4.5t-16 -11.5q-3 -5 -6.5 -13.5t-3.5 -15.5q-10 0 -19 -4.5t-16 -11.5
q-10 -10 -12.5 -23t-0.5 -25l-138 -138q-16 10 -37.5 7.5t-35.5 -16.5l-106 -106q-14 -14 -14 -35t14 -35q7 -7 16.5 -10.5t18.5 -5.5q0 -10 4.5 -19t11.5 -16q8 -8 17 -11t19 -5q0 -10 4 -19t12 -17q7 -7 16 -10t19 -6q0 -9 4.5 -18.5t11.5 -16.5t16 -11.5t19 -4.5h1.5h1.5
l138 -137q-5 -8 -7.5 -15.5t-2.5 -16.5q0 -12 5 -24t14 -21l106 -106q7 -7 16.5 -11.5t18.5 -4.5q10 0 19 4.5t16 11.5q8 7 11 16.5t5 18.5q10 0 19 4.5t17 11.5q7 8 10 17t6 19q9 0 18.5 4t16.5 12q7 7 10 16t6 19q9 0 18.5 4.5t16.5 11.5t11 18t2 20l137 138
q17 -10 38.5 -7.5t35.5 16.5l106 106q4 19 2.5 40.5t-15.5 36.5zM406 778q5 4 13 4t13 -4l38 -42q3 -2 5.5 -2.5t7.5 -0.5t8 0.5t5 2.5q5 5 5 11.5t-5 10.5l-42 42q-4 5 -4 13t4 13q5 4 13 4t13 -4l42 -42q2 -2 5 -2.5t7 -0.5q5 0 8 0.5t5 2.5q5 5 5 11.5t-5 10.5l-41 42
q-5 5 -5 13t5 13q4 4 12 4t13 -4l42 -42q5 -5 11 -5t11 5t5 11.5t-5 10.5l-45 42q-4 5 -4 13t4 13q5 4 13 4t13 -4l106 -106q9 -10 9 -21t-9 -21q-5 -4 -5 -10.5t5 -11.5l144 -144q-3 0 -3.5 -1.5t-3.5 -1.5l-102 -103l-141 144q-5 5 -11.5 5t-10.5 -5q-8 -7 -21.5 -7
t-20.5 7l-106 106q-7 5 -7 13t7 13v0zM704 426l-138 -138q-12 2 -23.5 1.5t-20.5 -7.5l-132 134q3 12 2 23.5t-8 21.5l144 144q10 0 19 0.5t16 5.5l138 -137q-5 -10 -4.5 -23t7.5 -25v0zM221 330l41 41q5 5 5 11.5t-5 11.5q-4 4 -10.5 4t-11.5 -4l-42 -42q-4 -5 -12 -5
t-13 5t-5 13t5 13l41 41q5 5 5 11.5t-5 11.5q-4 4 -10.5 4t-11.5 -4l-42 -42q-4 -5 -12 -5t-13 5t-5 13t5 13l41 41q5 5 5 11.5t-5 11.5q-4 4 -10.5 4t-11.5 -4l-45 -42q-5 -5 -13 -5t-12 5q-5 5 -5 13t5 13l105 105q10 7 22.5 7t19.5 -7q5 -5 11 -5t11 5l144 144l99 -99
q3 -2 3.5 -2.5t3.5 -0.5l-141 -147q-5 -5 -5 -11.5t5 -11.5q10 -9 10 -20.5t-10 -20.5l-106 -106q-4 -5 -12 -5t-13 5q-7 5 -7 13t7 13v0zM682 118q-5 -4 -13 -4t-13 4l-42 42q-4 5 -10.5 5t-11.5 -5t-5 -11.5t5 -10.5l42 -42q4 -5 4 -13t-4 -13q-5 -4 -13 -4t-13 4l-42 42
q-4 5 -10.5 5t-11.5 -5t-5 -11.5t5 -10.5l42 -42q4 -5 4 -13t-4 -13q-5 -4 -13 -4t-13 4l-42 42q-4 5 -10.5 5t-11.5 -5t-5 -11.5t5 -10.5l42 -42q4 -5 4 -13t-4 -13q-5 -4 -13 -4t-13 4l-106 106q-4 5 -6.5 10t-2.5 12q0 8 2.5 13t6.5 10q3 2 3.5 5t0.5 8q0 4 -2 7t-2 5
l-137 138v0v0l105 106l138 -138q5 -5 11.5 -5t10.5 5q10 7 22.5 7t19.5 -7l106 -106q4 -9 4 -18t-4 -14v0zM1014 413l-105 -106q-7 -7 -21 -7t-21 7q-5 5 -11 5t-11 -5l-141 -141v0v0l-106 106l138 138q2 2 2.5 5t0.5 7q0 5 -1.5 8t-1.5 5q-10 10 -10 21t10 21l106 105
q4 5 12 5t13 -5q5 -4 5 -12t-5 -13l-41 -42q-5 -5 -5 -11t5 -11q4 -5 10.5 -5t11.5 5l42 41q4 5 12 5t13 -5q5 -4 5 -12t-5 -13l-41 -42q-5 -5 -5 -11t5 -11q2 -3 5 -3h7h8t5 3l42 41q5 5 13 5t12 -5q5 -4 5 -12t-5 -13l-41 -42q-5 -5 -5 -11t5 -11q2 -3 5 -3h8h7t5 3l42 41
q5 5 13 5t13 -5q2 -4 1.5 -12t-5.5 -13v0zM774 397q-4 5 -10.5 5t-11.5 -5t-5 -11.5t5 -11.5l54 -54q3 -2 5.5 -2.5t7.5 -0.5t8 0.5t5 2.5q5 5 5 11.5t-5 10.5l-58 55v0z" />
    <glyph glyph-name="uniE928" unicode="&#xe928;"
d="M205 864q0 -41 27.5 -68.5t68.5 -27.5t68.5 27.5t27.5 68.5t-27.5 68.5t-68.5 27.5t-68.5 -27.5t-27.5 -68.5zM365 864q0 -26 -19 -45t-45 -19q-27 0 -45.5 19t-18.5 45t18.5 45t45.5 19q26 0 45 -19t19 -45zM29 528q0 -34 23 -57t57 -23q24 0 44 13t29 35l141 -26
q-2 -9 -2.5 -17t-0.5 -18q0 -67 46.5 -113.5t113.5 -46.5q50 0 90 28t57 71l189 -64h3h3q5 0 9.5 2.5t6.5 7.5q3 7 -0.5 12t-8.5 7l-189 64q2 7 2.5 14.5t0.5 14.5q0 67 -46.5 113.5t-113.5 46.5q-12 0 -22.5 -2t-22.5 -4l-60 153q-3 7 -9 9.5t-11 0.5q-7 -3 -9.5 -9
t0.5 -10l61 -154q-24 -12 -42.5 -31t-28.5 -43l-144 26v0.5v2.5q0 34 -23 57t-57 23q-33 0 -59.5 -24.5t-26.5 -58.5v0zM477 563q53 0 90.5 -37.5t37.5 -90.5t-37.5 -90.5t-90.5 -37.5t-90.5 37.5t-37.5 90.5t37.5 90.5t90.5 37.5v0zM109 576q19 0 33.5 -14.5t14.5 -33.5
t-13.5 -33.5t-34.5 -14.5q-22 0 -35 14.5t-13 33.5t14.5 33.5t33.5 14.5v0zM160 -64q67 0 113.5 46.5t46.5 113.5q0 31 -11 57.5t-31 48.5l80 83q5 5 5 11t-5 11q-4 5 -10.5 5t-11.5 -5l-80 -83q-19 14 -44.5 23t-51.5 9q-67 0 -113.5 -46.5t-46.5 -113.5t46.5 -113.5
t113.5 -46.5zM160 224q53 0 90.5 -37.5t37.5 -90.5t-37.5 -90.5t-90.5 -37.5t-90.5 37.5t-37.5 90.5t37.5 90.5t90.5 37.5zM944 195q34 0 57 23.5t23 56.5q0 34 -23 57t-57 23t-57 -23t-23 -57q0 -33 23 -56.5t57 -23.5zM944 323q19 0 33.5 -14.5t14.5 -33.5t-14.5 -33.5
t-33.5 -14.5t-33.5 13.5t-14.5 34.5q0 22 14.5 35t33.5 13zM637 554h6t7 3l57 57q17 -12 36.5 -20t43.5 -8q53 0 90.5 37.5t37.5 90.5q0 52 -37.5 90t-90.5 38t-90.5 -38t-37.5 -90q0 -22 7 -41t19 -36l-58 -58q-5 -5 -5 -11t5 -11l3.5 -1.5t6.5 -1.5zM784 813
q41 0 68.5 -27.5t27.5 -68.5t-27.5 -68.5t-68.5 -27.5t-68.5 27.5t-27.5 68.5t29 68.5t67 27.5z" />
    <glyph glyph-name="uniE929" unicode="&#xe929;"
d="M1008 758q0 29 -21 50t-49 21q-29 0 -51.5 -21t-22.5 -50q0 -4 0.5 -9t2.5 -10q-33 3 -71 -12t-70 -49q-4 -4 -9 -9.5t-10 -12.5q-17 36 -38.5 64.5t-47.5 47.5q9 14 14 30.5t5 33.5q0 53 -37.5 90.5t-90.5 37.5t-90.5 -37.5t-37.5 -90.5q0 -17 5 -33.5t14 -30.5
q-26 -22 -49 -52t-37 -66q-22 19 -45 30.5t-45 13.5q-29 5 -53 -1.5t-43 -23.5q-17 -17 -23.5 -42t-1.5 -54q4 -29 20 -55.5t37 -50.5q27 -26 57 -42.5t62 -21.5q7 -19 12.5 -39t12.5 -44h-233q-8 0 -12 -4t-4 -9q0 -79 31 -147t85 -117.5t128 -78.5q74 -28 159 -28h89
q86 0 159 28q74 29 128.5 78.5t85.5 117.5t31 147q0 7 -4.5 10t-11.5 3h-221q9 24 16 61t9 70h10h10q33 0 67.5 16t63.5 45q41 41 54.5 90.5t-3.5 85.5q26 2 45 22t19 48v0zM416 835q0 41 27.5 68.5t68.5 27.5t68.5 -27.5t27.5 -68.5q0 -12 -3 -24t-10 -24q-19 10 -40 16.5
t-43 6.5t-43 -6.5t-40 -16.5q-7 12 -10 24t-3 24zM189 490q-19 19 -33 42t-18 47q-5 22 -0.5 38.5t16.5 28.5t28.5 16.5t38.5 -0.5q21 -2 42 -13.5t38 -30.5q-10 -32 -16.5 -67.5t-6.5 -73.5q0 -10 0.5 -19t3.5 -16q-24 2 -48 15t-45 33zM550 -32h-89q-76 0 -142 23t-116 65
t-80 101t-33 131h240v0v0v0v0h364v0v0h228q-4 -72 -34 -131t-80 -101t-116 -65t-142 -23v0zM339 320q-14 48 -21.5 80.5t-7.5 73.5q0 46 9 89q10 44 26 80t38 64q23 28 49 45v0v0v0v0q19 12 38.5 19t38.5 7q21 0 40.5 -6.5t36.5 -16.5v0v0v0v0q31 -19 56 -54t40 -80v0v0
q12 -31 17 -68.5t5 -75.5q0 -41 -7 -73.5t-22 -80.5h-336v-3zM918 621q-4 -24 -16.5 -46t-34.5 -44q-29 -29 -64 -42.5t-64 -8.5q0 36 -6.5 71t-15.5 67q5 9 12 17t17 18q38 38 85 48.5t71 -13.5q12 -10 16.5 -28t-0.5 -39v0zM934 717q-16 0 -27 12.5t-11 28.5q0 17 12.5 28
t29.5 11q16 0 27 -12t11 -27q0 -14 -12.5 -27.5t-29.5 -13.5z" />
    <glyph glyph-name="uniE92A" unicode="&#xe92a;" horiz-adv-x="736"
d="M0 -16q0 -19 14.5 -33.5t33.5 -14.5h640q19 0 33.5 14.5t14.5 33.5v736q0 19 -14.5 33.5t-33.5 14.5h-576q-34 0 -57 23t-23 57t23 57t57 23h592q7 0 11.5 4.5t4.5 11.5t-4.5 11.5t-11.5 4.5h-592q-46 0 -79 -33t-33 -79v-5v-8v-1.5v-1.5v-848zM32 771q14 -17 35 -26
t45 -9h576q7 0 11.5 -4.5t4.5 -11.5v-736q0 -7 -4.5 -11.5t-11.5 -4.5h-640q-7 0 -11.5 4.5t-4.5 11.5v787zM704 864h-576q-7 0 -11.5 -4.5t-4.5 -11.5t4.5 -11.5t11.5 -4.5h576q7 0 11.5 4.5t4.5 11.5t-4.5 11.5t-11.5 4.5z" />
    <glyph glyph-name="uniE92B" unicode="&#xe92b;" horiz-adv-x="1152"
d="M288 51v-2v2v-67q0 -19 14.5 -33.5t33.5 -14.5h480q19 0 33.5 14.5t14.5 33.5v64v0v0q62 38 114 93q51 55 88.5 121t59.5 141t26 154q0 9 -3 18.5t-10 16.5t-16 11.5t-19 4.5h-525l327 326q4 5 4 11.5t-4 11.5q-5 5 -11.5 5t-11.5 -5l-349 -349h-486q-10 0 -19 -4.5
t-16 -11.5t-10 -15t-3 -20q5 -78 27 -153q23 -75 60.5 -141t88.5 -120q51 -55 112 -92v0zM832 -16q0 -7 -4.5 -11.5t-11.5 -4.5h-480q-7 0 -11.5 4.5t-4.5 11.5v48h512v-48zM1104 576q2 0 6 -2t7 -4q2 -3 2.5 -5.5t0.5 -4.5q-5 -79 -28 -154q-23 -74 -61.5 -138.5
t-90.5 -116.5t-114 -87h-288q-80 35 -127 97q-48 63 -74 135.5t-34 146.5q-9 73 -9 130v0.5v2.5h810zM38 570q3 2 5.5 4t4.5 2h214v-0.5v-2.5q0 -91 14 -170t40 -143.5t65 -113.5q39 -50 89 -82h-144q-62 35 -114 87t-90.5 116.5t-61.5 138.5q-23 75 -28 154q0 2 2 4.5
t4 5.5z" />
    <glyph glyph-name="uniE92C" unicode="&#xe92c;" horiz-adv-x="1344"
d="M48 672h352q19 0 33.5 14.5t14.5 33.5v192q0 19 -14.5 33.5t-33.5 14.5h-352q-19 0 -33.5 -14.5t-14.5 -33.5v-192q0 -19 14.5 -33.5t33.5 -14.5zM32 912q0 7 4.5 11.5t11.5 4.5h352q7 0 11.5 -4.5t4.5 -11.5v-192q0 -7 -4.5 -11.5t-11.5 -4.5h-352q-7 0 -11.5 4.5
t-4.5 11.5v192zM992 720v192q0 19 -14.5 33.5t-33.5 14.5h-352q-19 0 -33.5 -14.5t-14.5 -33.5v-192q0 -19 14.5 -33.5t33.5 -14.5h352q19 0 33.5 14.5t14.5 33.5zM576 720v192q0 7 4.5 11.5t11.5 4.5h352q7 0 11.5 -4.5t4.5 -11.5v-192q0 -7 -4.5 -11.5t-11.5 -4.5h-352
q-7 0 -11.5 4.5t-4.5 11.5zM1136 928h176q7 0 11.5 4.5t4.5 11.5t-4.5 11.5t-11.5 4.5h-176q-19 0 -33.5 -14.5t-14.5 -33.5v-192q0 -19 14.5 -33.5t33.5 -14.5h176q7 0 11.5 4.5t4.5 11.5t-4.5 11.5t-11.5 4.5h-176q-7 0 -11.5 4.5t-4.5 11.5v192q0 7 4.5 11.5t11.5 4.5z
M1296 576h-352q-19 0 -33.5 -14.5t-14.5 -33.5v-160q0 -19 14.5 -33.5t33.5 -14.5h352q19 0 33.5 14.5t14.5 33.5v160q0 19 -14.5 33.5t-33.5 14.5zM1312 368q0 -7 -4.5 -11.5t-11.5 -4.5h-352q-7 0 -11.5 4.5t-4.5 11.5v160q0 7 4.5 11.5t11.5 4.5h352q7 0 11.5 -4.5
t4.5 -11.5v-160zM752 576h-352q-19 0 -33.5 -14.5t-14.5 -33.5v-160q0 -19 14.5 -33.5t33.5 -14.5h352q19 0 33.5 14.5t14.5 33.5v160q0 19 -14.5 33.5t-33.5 14.5zM768 368q0 -7 -4.5 -11.5t-11.5 -4.5h-352q-7 0 -11.5 4.5t-4.5 11.5v160q0 7 4.5 11.5t11.5 4.5h352
q7 0 11.5 -4.5t4.5 -11.5v-160zM208 352h-176q-7 0 -11.5 -4.5t-4.5 -11.5t4.5 -11.5t11.5 -4.5h176q19 0 33.5 14.5t14.5 33.5v160q0 19 -14.5 33.5t-33.5 14.5h-176q-7 0 -11.5 -4.5t-4.5 -11.5t4.5 -11.5t11.5 -4.5h176q7 0 11.5 -4.5t4.5 -11.5v-160q0 -7 -4.5 -11.5
t-11.5 -4.5zM48 -64h352q19 0 33.5 14.5t14.5 33.5v192q0 19 -14.5 33.5t-33.5 14.5h-352q-19 0 -33.5 -14.5t-14.5 -33.5v-192q0 -19 14.5 -33.5t33.5 -14.5zM32 176q0 7 4.5 11.5t11.5 4.5h352q7 0 11.5 -4.5t4.5 -11.5v-192q0 -7 -4.5 -11.5t-11.5 -4.5h-352
q-7 0 -11.5 4.5t-4.5 11.5v192zM544 176v-192q0 -19 14.5 -33.5t33.5 -14.5h352q19 0 33.5 14.5t14.5 33.5v192q0 19 -14.5 33.5t-33.5 14.5h-352q-19 0 -33.5 -14.5t-14.5 -33.5zM960 176v-192q0 -7 -4.5 -11.5t-11.5 -4.5h-352q-7 0 -11.5 4.5t-4.5 11.5v192q0 7 4.5 11.5
t11.5 4.5h352q7 0 11.5 -4.5t4.5 -11.5zM1136 192h176q7 0 11.5 4.5t4.5 11.5t-4.5 11.5t-11.5 4.5h-176q-19 0 -33.5 -14.5t-14.5 -33.5v-192q0 -19 14.5 -33.5t33.5 -14.5h176q7 0 11.5 4.5t4.5 11.5t-4.5 11.5t-11.5 4.5h-176q-7 0 -11.5 4.5t-4.5 11.5v192q0 7 4.5 11.5
t11.5 4.5z" />
    <glyph glyph-name="uniE92D" unicode="&#xe92d;" horiz-adv-x="1120"
d="M973 941l-455 -371q-4 -5 -4.5 -11.5t1.5 -11.5q5 -5 11.5 -5t11.5 2l454 371q17 15 38.5 13t38.5 -16t17.5 -35.5t-11.5 -38.5l-365 -460q-4 -5 -2.5 -11.5t6.5 -11.5q2 -2 4.5 -2.5t4.5 -0.5q3 0 7 2t6 4l365 458q21 26 19 60t-29 58q-24 24 -58 26t-60 -19v0zM298 -64
q52 0 103.5 12t94.5 36q53 29 86 69q34 41 54 82.5t28 79.5q9 37 11 60q0 12 -3 23.5t-13 21.5l-147 144q-7 7 -16.5 11.5t-18.5 4.5q-90 6 -146 -19q-55 -25 -88 -65.5t-48 -88.5q-16 -49 -25 -89v-7q-15 -55 -59.5 -76.5t-75.5 -28.5q-9 -3 -16 -8t-9 -15q-3 -9 -2 -18.5
t8 -16.5q20 -26 50 -47t66.5 -35.5t78.5 -21.5q42 -8 87 -8zM32 74h1t-1 0q38 9 92 36.5t71 94.5v6q10 40 23 82q14 42 40.5 76.5t71.5 56.5q44 22 115 22h14h15q4 0 7 -2t5 -4l148 -144q4 -3 5 -9t1 -11q-2 -21 -10 -56q-7 -35 -24.5 -73.5t-47.5 -75.5t-78 -63
q-38 -22 -85 -33.5t-97 -11.5q-80 0 -152.5 27t-113.5 75v3.5v3.5v0z" />
    <glyph glyph-name="uniE92E" unicode="&#xe92e;" horiz-adv-x="896"
d="M768 720v192q0 19 -14.5 33.5t-33.5 14.5h-512q-19 0 -33.5 -14.5t-14.5 -33.5v-192q0 -19 14.5 -33.5t33.5 -14.5h512q19 0 33.5 14.5t14.5 33.5zM192 720v192q0 7 4.5 11.5t11.5 4.5h512q7 0 11.5 -4.5t4.5 -11.5v-192q0 -7 -4.5 -11.5t-11.5 -4.5h-512q-7 0 -11.5 4.5
t-4.5 11.5zM48 800h35q7 0 11.5 4.5t4.5 11.5t-5.5 11.5t-10.5 4.5h-35q-19 0 -33.5 -13t-14.5 -32v-230q0 -19 14.5 -32t33.5 -13h384q7 0 11.5 -6t4.5 -13v-58q0 -7 4.5 -11.5t11.5 -4.5t11.5 4.5t4.5 11.5v58q0 19 -14.5 35t-33.5 16h-384q-7 0 -11.5 3t-4.5 10v230
q0 5 4.5 9t11.5 4zM848 835q-7 0 -11.5 -4.5t-4.5 -11.5t4.5 -11.5t11.5 -4.5h32q7 0 11.5 4.5t4.5 11.5t-4.5 11.5t-11.5 4.5h-32zM576 304q0 19 -14.5 33.5t-33.5 14.5h-128q-19 0 -33.5 -14.5t-14.5 -33.5v-320q0 -19 14.5 -33.5t33.5 -14.5h128q19 0 33.5 14.5
t14.5 33.5v320zM544 -16q0 -7 -4.5 -11.5t-11.5 -4.5h-128q-7 0 -11.5 4.5t-4.5 11.5v320q0 7 4.5 11.5t11.5 4.5h128q7 0 11.5 -4.5t4.5 -11.5v-320z" />
    <glyph glyph-name="uniE92F" unicode="&#xe92f;" horiz-adv-x="736"
d="M0 912v-256q0 -19 14.5 -33.5t33.5 -14.5h640q19 0 33.5 14.5t14.5 33.5v256q0 19 -14.5 33.5t-33.5 14.5h-128q-7 0 -11.5 -4.5t-4.5 -11.5v-70l-42 80q-2 2 -6 4t-6 2h-442q-19 0 -33.5 -14.5t-14.5 -33.5v0zM144 784q7 0 11.5 4.5t4.5 11.5v128h96v-192
q0 -7 4.5 -11.5t11.5 -4.5t11.5 4.5t4.5 11.5v192h192l67 -128q3 -5 7.5 -7.5t11.5 -2.5q3 3 6.5 7.5t3.5 8.5v122h112q7 0 11.5 -4.5t4.5 -11.5v-256q0 -7 -4.5 -11.5t-11.5 -4.5h-640q-7 0 -11.5 4.5t-4.5 11.5v256q0 7 4.5 11.5t11.5 4.5h80v-128q0 -7 4.5 -11.5
t11.5 -4.5v0zM0 432q0 -19 14.5 -33.5t33.5 -14.5h186q16 0 32 -7t28 -22q12 -12 17 -28t3 -33l-26 -249q0 -43 33 -74.5t79 -31.5t79 31.5t33 77.5l-29 246q-2 17 4 33t15 28q12 15 28 22t33 7h122q19 0 33.5 14.5t14.5 33.5v112q0 7 -4.5 11.5t-11.5 4.5t-10 -4.5
t-3 -11.5v-112q0 -7 -4.5 -11.5t-11.5 -4.5h-122q-24 0 -46.5 -9.5t-39.5 -28.5q-17 -20 -24 -41.5t-5 -45.5l29 -246q0 -31 -23 -54t-57 -23t-57 22.5t-23 51.5l29 249q2 24 -5 47t-24 40q-17 19 -39.5 28.5t-46.5 9.5h-186q-7 0 -11.5 4.5t-4.5 11.5v112q0 7 -4.5 11.5
t-11.5 4.5t-11.5 -4.5t-4.5 -11.5v-112z" />
    <glyph glyph-name="uniE930" unicode="&#xe930;"
d="M-16 368q0 -7 4.5 -11.5t11.5 -4.5h128q7 0 11.5 4.5t4.5 11.5t-4.5 11.5t-11.5 4.5h-128q-7 0 -11.5 -4.5t-4.5 -11.5zM256 694l-102 96q-5 5 -11.5 5t-11.5 -5q-5 -4 -5 -10.5t5 -11.5l103 -96v0h3q-43 -60 -68 -135t-25 -156q0 -67 16 -129t45 -114l-96 -96
q-5 -5 -5 -11.5t5 -11.5q2 -2 5 -2.5t8 -0.5q4 0 7 0.5t5 2.5l90 90q24 -40 55 -72q32 -32 68.5 -54.5t78.5 -34.5t86 -12t86 12q41 12 77.5 34.5t69.5 53.5q32 31 58 70l90 -90q2 -2 5 -2.5t8 -0.5q4 0 7 0.5t5 2.5q5 5 5 11.5t-5 10.5l-96 96q27 48 43 103t18 115h109
q7 0 11.5 4.5t4.5 11.5t-4.5 11.5t-11.5 4.5h-112q0 82 -25 155t-68 133h0.5h2.5l103 96q5 5 5 11.5t-5 10.5q-5 5 -11.5 5t-11.5 -5l-102 -96q-14 17 -31 32t-36 29v0v0q0 22 -11.5 42.5t-30.5 34.5l1.5 0.5t1.5 2.5l96 96q5 5 5 11.5t-5 11.5q-4 4 -10.5 4t-11.5 -4
l-96 -96q-2 -3 -2.5 -5.5t-0.5 -4.5q-24 14 -57 21.5t-71 7.5q-36 0 -67.5 -7.5t-57.5 -21.5q0 2 -1.5 4l-1.5 2l-103 96q-4 10 -10.5 9t-11.5 -5q-5 -5 -5 -11.5t5 -11.5l102 -96v0v0q-19 -17 -30 -36.5t-11 -43.5v-2.5v-0.5q-17 -12 -32 -26.5t-29 -31.5v0zM509 848
q62 0 108.5 -25t51.5 -61q-39 -36 -79 -55t-81 -19v0v0q-63 0 -105.5 31t-54.5 43q5 36 51 61t109 25v0zM339 730q22 -20 66 -45.5t104 -25.5v0v0h1.5h1.5v-51q0 -7 4.5 -11.5t11.5 -4.5t11.5 4.5t4.5 11.5v51q36 7 70 24.5t68 46.5q38 -28 69 -66t52.5 -84t32.5 -97
q12 -51 12 -105q0 -80 -24 -150q-23 -71 -64 -125.5t-97 -89.5q-55 -35 -119 -42v509q0 7 -4.5 11.5t-11.5 4.5t-11.5 -4.5t-4.5 -11.5v-512v0v0q-70 0 -131 32t-106.5 87.5t-72.5 130.5q-26 74 -26 160q0 54 11 105q11 50 32 95.5t51 83.5q31 39 69 68z" />
    <glyph glyph-name="uniE931" unicode="&#xe931;" horiz-adv-x="704"
d="M512 96h-288q-7 0 -11.5 -4.5t-4.5 -11.5t4.5 -11.5t11.5 -4.5h288q7 0 11.5 4.5t4.5 11.5t-4.5 11.5t-11.5 4.5zM528 16q0 7 -4.5 11.5t-11.5 4.5h-288q-7 0 -11.5 -4.5t-4.5 -11.5t4.5 -11.5t11.5 -4.5h288q7 0 11.5 4.5t4.5 11.5zM288 -32q-7 0 -11.5 -4.5t-4.5 -11.5
t4.5 -11.5t11.5 -4.5h160q7 0 11.5 4.5t4.5 11.5t-4.5 11.5t-11.5 4.5h-160zM544 144v19q0 60 21.5 119.5t64.5 114.5q36 45 55 99.5t19 114.5q0 72 -28 136q-27 63 -74.5 110.5t-112.5 74.5q-64 28 -137 28q-10 0 -20 -0.5t-22 -2.5q-57 -6 -109 -31t-93.5 -64.5
t-68.5 -90.5t-36 -109q-12 -81 13 -157t80 -134q46 -48 71 -106t25 -118v-3q0 -7 4.5 -11.5t11.5 -4.5h320q7 0 11.5 4.5t4.5 11.5zM288 512h-58q-24 0 -40.5 18t-16.5 40q0 21 16.5 39t40.5 18t41 -14.5t17 -36.5v-64zM384 160h-64v320h64v-320zM512 160h-96v320h58
q36 0 62.5 27t26.5 63t-25.5 62.5t-63.5 26.5q-39 0 -64.5 -23.5t-25.5 -59.5v-64h-64v64q0 36 -25.5 61t-64.5 25q-38 0 -63.5 -26.5t-25.5 -62.5t26.5 -64.5t62.5 -28.5h58v-320h-64q-2 62 -28 122.5t-74 111.5q-51 52 -73.5 121.5t-10.5 143.5q8 53 32 99q25 47 62 82.5
t85 58.5q47 23 100 29q72 8 136 -13q65 -22 113.5 -66t76.5 -105q29 -62 29 -133q0 -53 -17 -102.5t-50 -92.5q-46 -58 -69.5 -122t-23.5 -131v-3v0zM416 512v64q0 22 17 38t41 16t40.5 -18t16.5 -39q0 -22 -18 -41.5t-39 -19.5h-58v0z" />
    <glyph glyph-name="uniE932" unicode="&#xe932;"
d="M0 528q0 -19 14.5 -33.5t33.5 -14.5h384q19 0 33.5 14.5t14.5 33.5v384q0 19 -14.5 33.5t-33.5 14.5h-384q-19 0 -33.5 -14.5t-14.5 -33.5v-384zM32 912q0 7 4.5 11.5t11.5 4.5h384q7 0 11.5 -4.5t4.5 -11.5v-384q0 -7 -4.5 -11.5t-11.5 -4.5h-384q-7 0 -11.5 4.5
t-4.5 11.5v384zM1024 912q0 19 -14.5 33.5t-33.5 14.5h-384q-19 0 -33.5 -14.5t-14.5 -33.5v-384q0 -19 14.5 -33.5t33.5 -14.5h384q19 0 33.5 14.5t14.5 33.5v384zM992 528q0 -7 -4.5 -11.5t-11.5 -4.5h-384q-7 0 -11.5 4.5t-4.5 11.5v384q0 7 4.5 11.5t11.5 4.5h384
q7 0 11.5 -4.5t4.5 -11.5v-384zM0 -16q0 -19 14.5 -33.5t33.5 -14.5h384q19 0 33.5 14.5t14.5 33.5v384q0 19 -14.5 33.5t-33.5 14.5h-384q-19 0 -33.5 -14.5t-14.5 -33.5v-384zM32 368q0 7 4.5 11.5t11.5 4.5h384q7 0 11.5 -4.5t4.5 -11.5v-384q0 -7 -4.5 -11.5t-11.5 -4.5
h-384q-7 0 -11.5 4.5t-4.5 11.5v384zM592 -64h384q19 0 33.5 14.5t14.5 33.5v384q0 19 -14.5 33.5t-33.5 14.5h-384q-19 0 -33.5 -14.5t-14.5 -33.5v-384q0 -19 14.5 -33.5t33.5 -14.5zM576 368q0 7 4.5 11.5t11.5 4.5h384q7 0 11.5 -4.5t4.5 -11.5v-384q0 -7 -4.5 -11.5
t-11.5 -4.5h-384q-7 0 -11.5 4.5t-4.5 11.5v384zM160 704h64v-64q0 -7 4.5 -11.5t11.5 -4.5t11.5 4.5t4.5 11.5v64h64q7 0 11.5 4.5t4.5 11.5t-4.5 11.5t-11.5 4.5h-64v64q0 7 -4.5 11.5t-11.5 4.5t-11.5 -4.5t-4.5 -11.5v-64h-64q-7 0 -11.5 -4.5t-4.5 -11.5t4.5 -11.5
t11.5 -4.5zM864 736h-160q-7 0 -11.5 -4.5t-4.5 -11.5t4.5 -11.5t11.5 -4.5h160q7 0 11.5 4.5t4.5 11.5t-4.5 11.5t-11.5 4.5zM704 192h160q7 0 11.5 4.5t4.5 11.5t-4.5 11.5t-11.5 4.5h-160q-7 0 -11.5 -4.5t-4.5 -11.5t4.5 -11.5t11.5 -4.5zM704 128h160q7 0 11.5 4.5
t4.5 11.5t-4.5 11.5t-11.5 4.5h-160q-7 0 -11.5 -4.5t-4.5 -11.5t4.5 -11.5t11.5 -4.5zM160 80q2 -2 5 -2.5t8 -0.5t7.5 0.5t5.5 2.5l64 64l64 -64q2 -2 5 -2.5t7 -0.5q5 0 8 0.5t5 2.5q5 5 5 11.5t-5 10.5l-64 64l64 64q5 5 5 11.5t-5 11.5t-11 5t-11 -5l-64 -64l-64 64
q-5 5 -11.5 5t-11.5 -5q-4 -5 -4 -11.5t4 -11.5l64 -64l-64 -64q-9 -4 -10 -10.5t4 -11.5v0z" />
    <glyph glyph-name="uniE933" unicode="&#xe933;"
d="M48 832h80q7 0 11.5 4.5t4.5 11.5t-4.5 11.5t-11.5 4.5h-80q-19 0 -33.5 -14.5t-14.5 -33.5v-832q0 -19 14.5 -33.5t33.5 -14.5h928q19 0 33.5 14.5t14.5 33.5v832q0 19 -14.5 33.5t-33.5 14.5h-80q-7 0 -11.5 -4.5t-4.5 -11.5t4.5 -11.5t11.5 -4.5h80q7 0 11.5 -4.5
t4.5 -11.5v-176h-960v176q0 7 4.5 11.5t11.5 4.5zM992 608v-624q0 -7 -4.5 -11.5t-11.5 -4.5h-928q-7 0 -11.5 4.5t-4.5 11.5v624h960zM608 832q7 0 11.5 4.5t4.5 11.5t-4.5 11.5t-11.5 4.5h-192q-7 0 -11.5 -4.5t-4.5 -11.5t4.5 -11.5t11.5 -4.5h192zM336 96h96
q10 0 17.5 4t14.5 9q7 -5 14.5 -9t17.5 -4h96q19 0 33.5 14.5t14.5 33.5v96q0 5 -2 11.5t-4 10.5q4 -2 9.5 -4t12.5 -2h96q19 0 33.5 14.5t14.5 33.5v96q0 19 -14.5 33.5t-33.5 14.5h-96q-10 0 -17.5 -4t-14.5 -9q-7 5 -14.5 9t-17.5 4h-96q-10 0 -17.5 -4t-14.5 -9
q-7 5 -14.5 9t-17.5 4h-96q-19 0 -33.5 -14.5t-14.5 -33.5v-96q0 -10 4 -17.5t9 -14.5q-5 -7 -9 -14.5t-4 -17.5v-96q0 -19 14.5 -33.5t33.5 -14.5zM432 128h-96q-7 0 -11.5 4.5t-4.5 11.5v96q0 7 4.5 11.5t11.5 4.5h96q7 0 11.5 -4.5t4.5 -11.5v-96q0 -7 -4.5 -11.5
t-11.5 -4.5zM608 144q0 -7 -4.5 -11.5t-11.5 -4.5h-96q-7 0 -11.5 4.5t-4.5 11.5v96q0 7 4.5 11.5t11.5 4.5h96q7 0 11.5 -4.5t4.5 -11.5v-96zM656 416h96q7 0 11.5 -4.5t4.5 -11.5v-96q0 -7 -4.5 -11.5t-11.5 -4.5h-96q-7 0 -11.5 4.5t-4.5 11.5v96q0 7 4.5 11.5t11.5 4.5z
M496 416h96q7 0 11.5 -4.5t4.5 -11.5v-96q0 -7 -4.5 -11.5t-11.5 -4.5h-96q-7 0 -11.5 4.5t-4.5 11.5v96q0 7 4.5 11.5t11.5 4.5zM320 400q0 7 4.5 11.5t11.5 4.5h96q7 0 11.5 -4.5t4.5 -11.5v-96q0 -7 -4.5 -11.5t-11.5 -4.5h-96q-7 0 -11.5 4.5t-4.5 11.5v96zM352 816v64
q0 34 -23 57t-57 23t-57 -23t-23 -57v-64q0 -34 23 -57t57 -23t57 23t23 57zM224 816v64q0 19 14.5 33.5t33.5 14.5t33.5 -14.5t14.5 -33.5v-64q0 -19 -14.5 -33.5t-33.5 -14.5t-33.5 14.5t-14.5 33.5zM832 816v64q0 34 -23 57t-57 23t-57 -23t-23 -57v-64q0 -34 23 -57
t57 -23t57 23t23 57zM704 816v64q0 19 14.5 33.5t33.5 14.5t33.5 -14.5t14.5 -33.5v-64q0 -19 -14.5 -33.5t-33.5 -14.5t-33.5 14.5t-14.5 33.5z" />
    <glyph glyph-name="uniE934" unicode="&#xe934;" horiz-adv-x="1216"
d="M48 -64h1120q19 0 33.5 14.5t14.5 33.5v800q0 19 -14.5 33.5t-33.5 14.5h-1120q-19 0 -33.5 -14.5t-14.5 -33.5v-800q0 -19 14.5 -33.5t33.5 -14.5zM32 784q0 7 4.5 11.5t11.5 4.5h1120q7 0 11.5 -4.5t4.5 -11.5v-800q0 -7 -4.5 -11.5t-11.5 -4.5h-1120q-7 0 -11.5 4.5
t-4.5 11.5v800zM608 128q60 0 112 22q53 23 92 62t61 91q23 53 23 113t-22 112q-23 53 -62 92t-91 61q-53 23 -113 23t-112 -22q-53 -23 -92 -62t-61 -91q-23 -53 -23 -113t22 -112q23 -53 62 -92t91 -61q53 -23 113 -23zM608 672q53 0 99 -20q47 -20 82 -55t55 -82
q20 -46 20 -99t-20 -99q-20 -47 -55 -82t-82 -55q-46 -20 -99 -20t-99 20q-47 20 -82 55t-55 82q-20 46 -20 99t20 99q20 47 55 82t82 55q46 20 99 20zM608 214q7 0 11.5 4.5t4.5 11.5q0 8 -4.5 12t-11.5 4q-70 0 -120 50t-50 120q0 7 -4 11.5t-12 4.5q-7 0 -11.5 -4.5
t-4.5 -11.5q0 -42 16 -79q16 -36 43 -63.5t64 -43.5t79 -16zM518 861q8 0 12 4.5t4 11.5q0 21 15 36t37 15h172q22 0 37 -15t15 -36q0 -7 4 -11.5t12 -4.5q7 0 11.5 4.5t4.5 11.5q0 33 -25 58t-59 25h-172q-34 0 -59 -25t-25 -58q0 -5 6 -10.5t10 -5.5v0zM208 864
q7 0 11.5 4.5t4.5 11.5q0 19 14.5 33.5t33.5 14.5t33.5 -14.5t14.5 -33.5q0 -7 4.5 -11.5t11.5 -4.5t11.5 4.5t4.5 11.5q0 34 -23 57t-57 23t-57 -23t-23 -57q0 -7 4.5 -11.5t11.5 -4.5z" />
    <glyph glyph-name="uniE935" unicode="&#xe935;" horiz-adv-x="672"
d="M0 80v-96q0 -19 14.5 -33.5t33.5 -14.5h576q19 0 33.5 14.5t14.5 33.5v96q0 19 -14.5 33.5t-33.5 14.5h-19q2 5 2.5 8t0.5 8v384q0 19 -14.5 33.5t-33.5 14.5h-208v96q0 7 -4.5 11.5t-11.5 4.5t-11.5 -4.5t-4.5 -11.5v-96h-208q-19 0 -33.5 -14.5t-14.5 -33.5v-384
q0 -5 0.5 -8t2.5 -8h-19q-19 0 -33.5 -14.5t-14.5 -33.5zM96 528q0 7 4.5 11.5t11.5 4.5h304v-64q0 -7 4.5 -11.5t11.5 -4.5t11.5 4.5t4.5 11.5v64h112q7 0 11.5 -4.5t4.5 -11.5v-384q0 -7 -4.5 -11.5t-11.5 -4.5h-448q-7 0 -11.5 4.5t-4.5 11.5v384zM112 96h512
q7 0 11.5 -4.5t4.5 -11.5v-96q0 -7 -4.5 -11.5t-11.5 -4.5h-576q-7 0 -11.5 4.5t-4.5 11.5v96q0 7 4.5 11.5t11.5 4.5h64zM266 611q4 3 6.5 5.5t2.5 7.5q5 62 26 95.5t35 45.5q41 -43 55.5 -92l14.5 -49q0 -5 4 -9t9 -4q5 -2 9.5 0t6.5 7q29 38 41 77t7 79q-12 82 -67.5 133
t-60.5 53t-9.5 2t-9.5 -2q-65 -46 -100.5 -94t-40.5 -101q-5 -65 23 -106l28 -41q3 -3 5.5 -3.5t7.5 -0.5q3 -2 3.5 -2.5t3.5 -0.5v0zM227 762q5 43 34 84t85 82q19 -14 57.5 -56.5t47.5 -100.5q3 -26 -2.5 -52.5t-19.5 -52.5q-10 26 -28.5 64.5t-51.5 69.5q-3 2 -5 2.5
t-5 0.5q-2 0 -4.5 -0.5t-4.5 -2.5q-3 0 -34.5 -31t-45.5 -100q-10 17 -17.5 40.5t-5.5 52.5v0zM176 176q7 0 11.5 4.5t4.5 11.5v288q0 7 -4.5 11.5t-11.5 4.5t-11.5 -4.5t-4.5 -11.5v-288q0 -7 4.5 -11.5t11.5 -4.5z" />
    <glyph glyph-name="uniE936" unicode="&#xe936;"
d="M218 854q-17 -31 -1 -57.5t33 -38.5l2 -1.5t4 -1.5t6 2t7 5q24 28 34 58t7 57q-4 38 -23 59t-21 21q-5 2 -10 3.5t-10 -3.5q-2 -3 -4 -7t-2 -9q5 -22 -1.5 -38.5t-20.5 -44.5v-4v0zM246 838l4 4q7 16 12 29.5t10 27.5q2 -5 4 -11.5t2 -13.5q3 -20 -3.5 -39.5t-18.5 -40.5
q-7 9 -12 20.5t2 23.5v0zM634 650q-17 -32 -1 -58t33 -38q2 -3 4.5 -3.5t4.5 -0.5q3 0 7 2t6 5q24 29 34 59t8 56q-5 38 -24 58t-21 22q-5 2 -10 2t-9 -2q-5 -2 -7 -6.5t0 -9.5q5 -22 -1.5 -39.5t-20.5 -43.5zM662 634l4 3q7 17 13.5 29.5t11.5 24.5q3 -5 5 -11.5t2 -13.5
q2 -20 -4.5 -39.5t-18.5 -40.5q-9 12 -14.5 24t1.5 24v0zM16 -38q-2 -5 -2 -9.5t2 -6.5q0 -5 4 -7.5t9 -2.5h947q7 0 11.5 4.5t4.5 11.5q0 2 -0.5 4.5t-2.5 5.5q-34 48 -63.5 77.5t-58.5 43.5q46 43 71 99t25 119q0 79 -33 145t-88 95q-5 2 -10.5 4t-12.5 2h-301
q-7 0 -12 -2l-10 -4q-53 -27 -87.5 -94t-34.5 -146q0 -58 21 -110t59 -95h-102v592q0 19 -14.5 33.5t-33.5 14.5h-128q-19 0 -33.5 -14.5t-14.5 -33.5v-592q0 -2 1.5 -6l1.5 -4q-24 -9 -48 -30.5t-48 -61.5l-19 -32v0zM406 301q0 67 30 127t73 84h3h3h125v-192
q0 -7 4.5 -11.5t11.5 -4.5t11.5 4.5t4.5 11.5v192h64v-96q0 -7 4.5 -11.5t11.5 -4.5t11.5 4.5t4.5 11.5v96h51q3 0 5 -0.5t2 -2.5q45 -24 73.5 -83t28.5 -128q0 -58 -23 -109t-67 -90q-2 -2 -2.5 -3t-0.5 -3q-7 2 -14 2.5t-15 0.5h-307v0v0q-45 41 -69 93t-24 112v0zM160 96
v592q0 7 4.5 11.5t11.5 4.5h80v-64q0 -7 4.5 -11.5t11.5 -4.5t11.5 4.5t4.5 11.5v64h16q7 0 11.5 -4.5t4.5 -11.5v-592h-131h-14.5h-14.5q0 -2 0 -1v1zM64 -26q24 44 55 67t67 23h620q36 0 68 -21.5t70 -74.5h-883l3 6v0z" />
    <glyph glyph-name="uniE937" unicode="&#xe937;" horiz-adv-x="1408"
d="M1306 592q26 12 49.5 26t42.5 28q5 5 6.5 11.5t-2.5 11.5q-5 5 -11.5 6.5t-11.5 -3.5q-26 -17 -55.5 -33.5t-65.5 -30.5l-61 227q-15 55 -60.5 90t-102.5 35h-660q-57 0 -103.5 -35t-65.5 -90l-58 -227h-1.5h-1.5q-34 14 -64 29.5t-54 34.5q-5 2 -12.5 1.5t-10.5 -7.5
q-2 -8 -1.5 -13t4.5 -10q20 -12 42 -24t48 -24q-43 -19 -69.5 -63.5t-26.5 -99.5v-128q0 -60 36.5 -107.5t91.5 -62.5v-3v-3v-45q0 -60 42 -103.5t102 -43.5t102 43.5t42 103.5v45h576v-45q0 -62 42 -104.5t102 -42.5t102 43.5t42 103.5v45v3v3q55 15 91.5 62.5t36.5 107.5
v128q0 53 -26 95.5t-76 64.5zM237 826q14 45 51.5 73.5t85.5 28.5h660q48 0 85.5 -28.5t51.5 -73.5l58 -218h-5.5h-7.5v-19q-53 -18 -112 -32q-60 -15 -125 -24.5t-134 -15.5q-69 -5 -141 -5q-74 0 -146 5q-72 6 -138.5 16.5t-128.5 25.5q-61 16 -115 36l61 231v0zM384 83
q0 -48 -33 -81.5t-79 -33.5t-79 33.5t-33 81.5v45v0v0h8h8h208v-45zM1248 128v-45q0 -48 -33 -81.5t-79 -33.5t-79 33.5t-33 81.5v45h208h8h8v0v0zM1376 304q0 -60 -42 -102t-102 -42h-1056q-60 0 -102 42t-42 102v128q0 53 33 93.5t76 47.5q56 -22 122 -39
q65 -17 136.5 -29t148.5 -19q77 -6 156 -6q78 0 154 6q75 6 145.5 17.5t134.5 27.5q64 17 120 39q52 -12 85 -50t33 -88v-128zM230 464q-40 0 -68 -27.5t-28 -68.5t28 -68.5t68 -27.5q41 0 68.5 27.5t27.5 68.5t-28.5 68.5t-67.5 27.5v0zM230 304q-26 0 -45 19t-19 45t19 45
t45 19q27 0 45.5 -19t18.5 -45t-18.5 -45t-45.5 -19v0zM1190 464q-40 0 -68 -27.5t-28 -68.5t28 -68.5t68 -27.5q41 0 68.5 27.5t27.5 68.5t-28.5 68.5t-67.5 27.5zM1190 304q-26 0 -45 19t-19 45t19 45t45 19q27 0 45.5 -19t18.5 -45t-18.5 -45t-45.5 -19zM598 704
q3 0 7 0.5t6 2.5l87 87q4 4 4 10.5t-4 11.5q-5 5 -11.5 5t-11.5 -5l-86 -86q-5 -5 -5 -11.5t5 -11.5q0 -2 2.5 -2.5t6.5 -0.5zM598 566q3 0 7 0.5t6 3.5l227 227q5 5 5 11t-5 11q-4 5 -10.5 5t-11.5 -5l-227 -227q-5 -5 -5 -11.5t5 -10.5l2.5 -2t6.5 -2v0zM688 400
q-7 0 -11.5 -4.5t-4.5 -11.5v-96q0 -7 4.5 -11.5t11.5 -4.5t11.5 4.5t4.5 11.5v96q0 7 -4.5 11.5t-11.5 4.5zM560 400q-7 0 -11.5 -4.5t-4.5 -11.5v-96q0 -7 4.5 -11.5t11.5 -4.5t11.5 4.5t4.5 11.5v96q0 7 -4.5 11.5t-11.5 4.5zM816 400q-7 0 -11.5 -4.5t-4.5 -11.5v-96
q0 -7 4.5 -11.5t11.5 -4.5t11.5 4.5t4.5 11.5v96q0 7 -4.5 11.5t-11.5 4.5z" />
    <glyph glyph-name="uniE938" unicode="&#xe938;"
d="M416 624q31 0 52.5 21t21.5 53q0 31 -21.5 52t-52.5 21t-52.5 -21t-21.5 -52q0 -32 22.5 -53t51.5 -21zM416 742q17 0 29.5 -12t12.5 -29t-12.5 -31t-29.5 -14t-29.5 12.5t-12.5 29.5q0 16 12.5 30t29.5 14v0zM323 464q3 0 7 2t6 4l83 87l29 -29q5 -5 9.5 -5.5t9.5 -0.5
t10 2t9 7l138 141l118 -122q5 -4 11.5 -4t11.5 4q5 5 5 11.5t-5 11.5l-125 121q-2 5 -7 7.5t-12 2.5t-11 -2.5t-8 -7.5l-138 -140l-29 28q-7 8 -19 8t-19 -8l-87 -89q-4 -5 -4 -11.5t4 -11.5q3 -4 7 -5t6 -1v0zM774 224h-480q-7 0 -11.5 -4.5t-4.5 -11.5t4 -11.5t9 -4.5h480
q7 0 11.5 4.5t4.5 11.5t-2.5 11.5t-10.5 4.5v0zM774 314h-480q-7 0 -11.5 -4.5t-4.5 -11.5q0 -8 4.5 -12t11.5 -4h480q8 0 12 4t4 12q0 7 -4 11.5t-12 4.5zM515 138h-224q-7 0 -11.5 -4.5t-4.5 -11.5q0 -8 4.5 -12t11.5 -4h221q7 0 11.5 4t4.5 12q0 7 -3 11.5t-10 4.5z
M864 957h-704q-34 0 -57 -23.5t-23 -56.5v-864q0 -34 23 -57t57 -23h704q34 0 57 23t23 57v864q0 33 -23 56.5t-57 23.5zM912 13q0 -19 -14.5 -33.5t-33.5 -14.5h-704q-19 0 -33.5 14.5t-14.5 33.5v864q0 19 14.5 33.5t33.5 14.5h704q19 0 33.5 -14.5t14.5 -33.5v-864z" />
    <glyph glyph-name="uniE939" unicode="&#xe939;"
d="M512 45q-14 0 -29 6.5t-22 18.5l-451 637q-10 15 -11.5 33t7.5 34q8 17 23.5 26.5t34.5 9.5h902q20 0 34 -9.5t24 -26.5q7 -16 6.5 -34t-9.5 -33l-458 -637q-7 -12 -22 -18.5t-29 -6.5v0zM61 778q-10 0 -17 -5t-12 -15q-5 -9 -3.5 -16.5t6.5 -15.5l451 -636
q10 -12 27 -12t25 12l451 636q5 8 5 16.5t-2 15.5q-2 8 -10.5 12t-18.5 4h-902v4z" />
    <glyph glyph-name="uniE93A" unicode="&#xe93a;"
d="M16 682l461 -528q14 -17 36.5 -17t36.5 17l458 528q19 24 7.5 52t-42.5 28h-919q-33 0 -45 -28t7 -52v0z" />
    <glyph glyph-name="uniE93B" unicode="&#xe93b;"
d="M746 944l-528 -461q-17 -14 -17 -36.5t17 -36.5l528 -461q24 -19 52 -7.5t28 42.5v918q-3 36 -31 48.5t-49 -6.5z" />
    <glyph glyph-name="uniE93C" unicode="&#xe93c;"
d="M278 -51l532 464q16 14 16 36.5t-16 36.5l-532 461q-24 19 -52 7.5t-28 -42.5v-928q0 -31 28 -44t52 9z" />
    <glyph glyph-name="uniE93D" unicode="&#xe93d;"
d="M1008 214l-461 528q-14 17 -36.5 17t-36.5 -17l-458 -528q-19 -24 -7.5 -52t42.5 -28h919q33 0 45 28t-7 52z" />
    <glyph glyph-name="uniE93E" unicode="&#xe93e;"
d="M829 -67v0q-10 0 -19.5 2.5t-19.5 10.5l-633 451q-12 9 -19 23t-7 28t7 29t19 22l637 451q7 5 16.5 9t21.5 4q26 0 45 -18.5t19 -45.5v-902q0 -15 -5 -26.5t-14 -18.5q-10 -10 -23 -14.5t-25 -4.5v0zM829 931q-5 0 -10 -2t-9 -4l-634 -451q-7 -5 -10 -12t-3 -14t4 -14
t9 -12l637 -451q5 -2 9.5 -4t9.5 -2v0q7 0 12.5 2.5t9.5 6.5q3 3 6.5 9.5t3.5 13.5v902q-2 15 -12.5 23.5t-22.5 8.5v0z" />
    <glyph glyph-name="uniE93F" unicode="&#xe93f;"
d="M195 -67v0q-26 0 -45 18.5t-19 45.5v902q0 27 19 45.5t45 18.5q10 0 19.5 -2.5t19.5 -10.5l636 -451q12 -9 19 -23t7 -28t-7 -29t-19 -22l-640 -451q-7 -8 -16 -10.5t-19 -2.5zM195 931q-12 0 -22 -8.5t-10 -23.5v-902q0 -15 10 -23.5t22 -8.5v0q5 0 10 2t9 4l637 451
q7 5 10 12t3 14t-4 14t-9 12l-640 451q-2 2 -6.5 4t-9.5 2v0z" />
    <glyph glyph-name="uniE940" unicode="&#xe940;"
d="M963 64h-902q-17 0 -32.5 9t-25.5 26q-7 17 -6.5 35t9.5 32l455 637q9 12 23 19t28 7q17 0 30.5 -7t20.5 -19l451 -637q10 -14 11.5 -32t-7.5 -35q-8 -17 -23 -26t-32 -9v0zM512 797q-7 0 -14 -4t-12 -9l-451 -637q-5 -7 -5 -16t2 -19q5 -7 12 -11.5t17 -4.5h902
q10 0 17 4.5t12 11.5t4.5 16.5t-7.5 18.5l-451 637q-5 7 -12 10t-14 3v0z" />
    <glyph glyph-name="uniE941" unicode="&#xe941;" horiz-adv-x="1056"
d="M784 960h-512q-19 0 -33.5 -14.5t-14.5 -33.5v-928q0 -19 14.5 -33.5t33.5 -14.5h512q19 0 33.5 14.5t14.5 33.5v928q0 19 -14.5 33.5t-33.5 14.5zM800 -16q0 -7 -4.5 -11.5t-11.5 -4.5h-512q-7 0 -11.5 4.5t-4.5 11.5v928q0 7 4.5 11.5t11.5 4.5h512q7 0 11.5 -4.5
t4.5 -11.5v-928zM1014 51q-2 0 -6.5 -0.5t-9.5 3.5l-67 64q-5 5 -11 5t-11 -5q-5 -4 -5 -10.5t5 -11.5l67 -64q7 -7 16 -10t16 -3q5 0 9.5 0.5t9.5 2.5q15 5 22 18t7 27v765q0 14 -7 26t-22 19q-14 7 -27.5 3.5t-23.5 -13.5l-70 -64q-5 -5 -5 -11t5 -11q4 -5 10.5 -5t11.5 5
l70 64q5 5 10.5 4l5.5 -1q3 -2 6.5 -5.5t3.5 -10.5v-762q0 -9 -3.5 -12.5zM42 848q2 0 6.5 1t9.5 -4l83 -71q5 -2 12.5 -1.5t9.5 5.5q3 4 4 12t-4 10l-83 70q-12 10 -25.5 12t-25.5 -5q-15 -5 -22 -16t-7 -26v-771q0 -14 7 -26t22 -19q5 -2 9.5 -2.5t9.5 -0.5q10 0 17.5 3
t14.5 10l80 67q5 5 5.5 11.5t-2.5 10.5q-5 5 -11 5.5t-11 -1.5l-80 -68q-5 -4 -10.5 -3.5l-5.5 0.5q-5 -2 -9 2t-4 11v771q0 7 3.5 10t6.5 3v0z" />
    <glyph glyph-name="uniE942" unicode="&#xe942;" horiz-adv-x="1152"
d="M1136 672h-656q-7 0 -11.5 -4.5t-4.5 -11.5t4.5 -11.5t11.5 -4.5h637l-71 -384h-672l-188 691q0 5 -4.5 9t-11.5 4h-138q-7 0 -11.5 -4.5t-4.5 -11.5t4.5 -11.5t11.5 -4.5h125l189 -691q2 -5 6.5 -9t9.5 -4h694q5 0 9.5 4t6.5 9l77 416q0 2 -0.5 6t-2.5 7q0 2 -4 4t-6 2
v0zM534 29q0 38 -27 65.5t-65 27.5q-39 0 -66 -27.5t-27 -65.5q0 -39 27 -66t66 -27q38 0 65 27t27 66zM381 29q0 24 17 42.5t44 18.5q26 0 43 -17.5t17 -43.5q0 -27 -17 -44t-43 -17q-27 0 -44 17t-17 44zM938 122q-39 0 -66 -27.5t-27 -65.5q0 -39 27 -66t66 -27
q38 0 65 27t27 66q0 38 -27 65.5t-65 27.5v0zM938 -32q-24 0 -42.5 17t-18.5 44q0 26 17 43.5t44 17.5q26 0 43 -17.5t17 -43.5q0 -27 -17 -44t-43 -17zM608 352v192q0 7 -4.5 11.5t-11.5 4.5t-11.5 -4.5t-4.5 -11.5v-192q0 -7 4.5 -11.5t11.5 -4.5t11.5 4.5t4.5 11.5z
M832 352v192q0 7 -4.5 11.5t-11.5 4.5t-11.5 -4.5t-4.5 -11.5v-192q0 -7 4.5 -11.5t11.5 -4.5t11.5 4.5t4.5 11.5z" />
    <glyph glyph-name="uniE943" unicode="&#xe943;" horiz-adv-x="1120"
d="M1062 672h-598q-7 0 -11.5 -4.5t-4.5 -11.5t4.5 -11.5t11.5 -4.5h598q5 0 8 -2t5 -4q3 -3 3 -7v-6l-60 -346q-3 -7 -7.5 -13t-8.5 -6h-612q-2 0 -7.5 6t-8.5 13l-169 618q-5 17 -18 26t-27 9h-144q-7 0 -11.5 -4.5t-4.5 -11.5t4.5 -11.5t11.5 -4.5h144q5 0 9.5 -2.5
t6.5 -7.5l170 -617q4 -15 16 -28.5t28 -13.5h612q19 0 32 14t16 31l60 346q3 9 0.5 20.5t-9.5 20.5q-7 5 -17 9t-22 4zM442 118q-36 0 -63 -26.5t-27 -62.5t27 -63t63 -27t62.5 27t26.5 63t-26.5 62.5t-62.5 26.5zM442 -29q-24 0 -41 17t-17 41t17 40.5t41 16.5t40.5 -16.5
t16.5 -40.5t-18 -41t-39 -17zM918 118q-36 0 -62.5 -26.5t-26.5 -62.5t26.5 -63t62.5 -27t63 27t27 63t-27 62.5t-63 26.5zM918 -29q-24 0 -40.5 17t-16.5 41t16.5 40.5t40.5 16.5t41 -16.5t17 -40.5t-17 -41t-41 -17zM592 352v192q0 7 -4.5 11.5t-11.5 4.5t-11.5 -4.5
t-4.5 -11.5v-192q0 -7 4.5 -11.5t11.5 -4.5t11.5 4.5t4.5 11.5zM816 352v192q0 7 -4.5 11.5t-11.5 4.5t-11.5 -4.5t-4.5 -11.5v-192q0 -7 4.5 -11.5t11.5 -4.5t11.5 4.5t4.5 11.5zM1024 752q7 0 11.5 4.5t4.5 11.5v83q0 17 -9 30t-26 18l-227 58q-10 2 -21 -0.5t-21 -9.5
q-5 -5 -7.5 -9.5t-5.5 -9.5l-195 -67q-14 -5 -24.5 -18t-10.5 -27v-48q0 -7 4.5 -11.5t11.5 -4.5t11.5 4.5t4.5 11.5v48q0 5 4 9.5t9 6.5l179 61v-125q0 -7 4.5 -11.5t11.5 -4.5t11.5 4.5t4.5 11.5v141q0 5 2 7.5t4 5.5q3 2 7 2.5t6 0.5l230 -61q8 -2 9 -8t1 -8v-80
q0 -7 4.5 -11.5t11.5 -4.5v0z" />
    <glyph glyph-name="uniE944" unicode="&#xe944;" horiz-adv-x="1184"
d="M592 99q-34 0 -57 -23t-23 -57q0 -33 23 -56.5t57 -23.5t57 23.5t23 56.5q0 34 -23 57t-57 23zM592 -29q-19 0 -33.5 14.5t-14.5 33.5t14.5 33.5t33.5 14.5t33.5 -14.5t14.5 -33.5t-14.5 -33.5t-33.5 -14.5zM592 682q-41 0 -68.5 -27t-27.5 -63l22 -352q0 -29 21 -48
t50 -19t49.5 19t20.5 48l29 355q0 34 -27.5 60.5t-68.5 26.5v0zM627 237q0 -15 -12 -25t-26 -10q-15 0 -27 10t-12 25l-22 352q0 24 19 40.5t45 16.5t45 -16.5t19 -40.5l-29 -352v0zM115 0h282q7 0 11.5 4.5t4.5 11.5t-4.5 11.5t-11.5 4.5h-282q-24 0 -42.5 11t-30.5 31
q-10 19 -9.5 41.5t12.5 41.5l477 733q12 19 30 28.5t40 9.5t40 -9.5t30 -28.5l477 -733q12 -19 13.5 -41.5t-10.5 -41.5q-12 -20 -30.5 -31t-42.5 -11h-282q-7 0 -11.5 -4.5t-4.5 -11.5t4.5 -11.5t11.5 -4.5h282q31 0 58 16t44 45q15 29 14.5 59t-17.5 56l-480 733
q-17 24 -42 37.5t-54 13.5t-54 -13.5t-42 -37.5l-477 -733q-17 -26 -18.5 -57.5t15.5 -57.5q14 -29 40 -45t59 -16v0z" />
    <glyph glyph-name="uniE945" unicode="&#xe945;" horiz-adv-x="896"
d="M653 435q0 -7 2.5 -12t10.5 -7v0h3q5 0 10.5 4t5.5 9l51 349q5 33 -6 66.5t-32 57.5q-22 29 -54 43.5t-68 14.5h-250q-36 0 -68 -14t-56 -40q-24 -27 -34 -59.5t-5 -68.5l51 -349q3 -5 7.5 -9t12.5 -4q7 0 11 6t1 13l-51 346q-2 26 5.5 53.5t26.5 48.5q17 22 44 33.5
t55 11.5h250q29 0 54.5 -11.5t44.5 -33.5q19 -21 27 -47t5 -52l-54 -349v0zM669 -64h3h3q5 0 9.5 2.5t6.5 7.5q3 7 -4.5 11.5t-14.5 7.5q-55 17 -102 24.5t-119 7.5v64q0 7 -4.5 11.5t-11.5 4.5t-13 -3t-6 -10v-64q-72 -2 -136 -17t-69 -15q-7 -2 -8 -8t2 -11q2 -7 8.5 -9.5
t13.5 -0.5q1 -1 40 8q39 10 101.5 16t141.5 3q78 -4 159 -30zM64 576h51q7 0 11.5 4.5t4.5 11.5t-5.5 11.5t-10.5 4.5h-51q-14 0 -26 -8t-22 -18q-10 -9 -14 -24.5t-2 -29.5q11 -86 50 -161q40 -74 100 -128.5t136 -85.5q77 -31 162 -31t162 30q76 31 136 85t100 129
q39 74 50 162q2 14 -2 30t-14 28q-10 7 -22 14.5t-26 7.5h-48q-7 0 -11.5 -4.5t-4.5 -11.5t4.5 -11.5t11.5 -4.5h48q7 0 12.5 -5.5t9.5 -10.5q5 -5 7.5 -13.5t2.5 -15.5q-10 -80 -46 -150q-37 -69 -92.5 -120.5t-126.5 -80.5q-72 -30 -151 -30t-150 29q-72 29 -127.5 79.5
t-92.5 120.5q-36 69 -46 149q0 7 2.5 17t7.5 15q4 5 9.5 10.5t12.5 5.5z" />
    <glyph glyph-name="uniE946" unicode="&#xe946;" horiz-adv-x="800"
d="M790 950q-4 3 -10.5 1t-11.5 -7q-46 -90 -73 -171q-27 -80 -41.5 -145t-18.5 -112q-5 -46 -5 -68h-470q-17 0 -30 -10.5t-18 -24.5l-112 -461q-2 -7 2 -12t11 -7h1.5h1.5q5 0 9.5 4t6.5 9l112 460q2 3 6.5 6.5t9.5 3.5h474l108 -467q3 -5 7.5 -9t8.5 -4h2h2q7 2 9.5 7
t2.5 12l-115 487q0 16 4 61q4 44 18 109t42 146q27 82 74 173q5 5 3 11t-10 8v0z" />
    <glyph glyph-name="uniE947" unicode="&#xe947;" horiz-adv-x="1120"
d="M835 656q-33 0 -56.5 -23t-23.5 -57t23.5 -57t56.5 -23q34 0 57 23t23 57t-24.5 57t-55.5 23zM835 528q-19 0 -33.5 14.5t-14.5 33.5t14.5 33.5t33.5 14.5t33.5 -14.5t14.5 -33.5t-14.5 -33.5t-33.5 -14.5zM592 656q-34 0 -57 -23t-23 -57t23 -57t57 -23t57 24.5t23 55.5
t-23 55.5t-57 24.5zM592 528q-19 0 -33.5 14.5t-14.5 33.5t14.5 33.5t33.5 14.5t33.5 -13t14.5 -35t-14.5 -35t-33.5 -13zM349 656q-34 0 -57 -23t-23 -57t23 -57t57 -23q33 0 56.5 23t23.5 57t-23.5 57t-56.5 23zM349 528q-19 0 -33.5 14.5t-14.5 33.5t14.5 33.5t33.5 14.5
t33.5 -14.5t14.5 -33.5t-13.5 -33.5t-34.5 -14.5zM1072 960h-1024q-19 0 -33.5 -14.5t-14.5 -33.5v-704q0 -19 14.5 -33.5t33.5 -14.5h192q7 0 11.5 -4.5t4.5 -11.5v-192q0 -5 2.5 -9t7.5 -4q0 -2 2 -2.5t4 -0.5t4.5 0.5t5.5 2.5l304 218q2 2 4.5 2.5t4.5 0.5h477
q19 0 33.5 14.5t14.5 33.5v704q0 19 -14.5 33.5t-33.5 14.5v0zM1088 208q0 -7 -4.5 -11.5t-11.5 -4.5h-477q-7 0 -14 -2.5t-15 -7.5l-278 -198v160q0 19 -14.5 33.5t-33.5 14.5h-192q-7 0 -11.5 4.5t-4.5 11.5v704q0 7 4.5 11.5t11.5 4.5h1024q7 0 11.5 -4.5t4.5 -11.5v-704
z" />
    <glyph glyph-name="uniE948" unicode="&#xe948;" horiz-adv-x="1184"
d="M205 317l-61 -131q-2 -5 -0.5 -10t3.5 -10q3 -2 5.5 -2.5t7.5 -0.5h3h3l218 99q19 -2 36.5 -2.5t33.5 -0.5q94 0 176 28q82 27 143.5 74.5t96.5 110.5q36 64 36 136t-36 135q-35 64 -96.5 111.5t-143.5 74.5q-82 28 -176 28q-93 0 -176 -27q-84 -27 -146 -74t-99 -110
q-36 -63 -36 -135q0 -44 14 -86t40.5 -80t65.5 -71q39 -32 88 -57v0zM451 928q87 0 163 -25q76 -24 133 -67t90 -101t33 -124t-33 -124q-33 -57 -90 -100t-133 -68t-163 -25q-17 0 -34 1t-36 6h-5h-5l-182 -83l51 102q2 2 2 6t-2 7q-2 2 -3.5 4.5t-6.5 4.5q-46 22 -84 51
q-37 30 -63 65t-40 75q-14 39 -14 81q0 65 33 122t90.5 100t134.5 67q77 25 164 25v0zM230 534q5 0 8.5 -1.5t7.5 -1.5q15 0 28.5 7t23.5 19q9 12 12 26t0 28q-4 17 -16 30t-32 18q-19 5 -37 -1.5t-30 -20.5q-9 -12 -12 -26t-1 -29q5 -19 18.5 -32t29.5 -16v0zM221 614
q5 5 11.5 9t13.5 4h5.5h4.5q7 -2 13.5 -8.5t8.5 -13.5q3 -7 1 -14.5t-7 -14.5t-13.5 -10t-18.5 -3q-7 3 -13.5 9t-8.5 14q-5 9 -3.5 16.5t6.5 11.5v0zM419 534q5 0 8 -1.5t8 -1.5q15 0 28.5 7t22.5 19q10 12 13 26t0 28q-5 17 -17 30t-31 18t-37 -1.5t-30 -20.5
q-10 -12 -12.5 -26t-0.5 -29q5 -19 18 -32t30 -16v0zM410 614q4 5 11 9t14 4h5h5q7 -2 13.5 -8.5t8.5 -13.5q3 -7 1 -14.5t-7 -14.5t-14 -10t-18 -3q-7 3 -13.5 9t-9.5 14q-4 9 -2.5 16.5t6.5 11.5v0zM608 534q5 0 8 -1.5t8 -1.5q14 0 28 7t23 19q10 12 12.5 26t0.5 28
q-5 17 -17 30t-31 18t-37 -1.5t-30 -20.5q-10 -12 -12.5 -26t-0.5 -29q5 -19 18 -32t30 -16v0zM598 614q5 5 12 9t14 4h4.5h5.5q7 -2 13.5 -8.5t8.5 -13.5t0 -14.5t-6 -14.5q-5 -7 -14 -10t-18 -3q-8 3 -14 9t-9 14q-5 9 -3 16.5t6 11.5v0zM957 570q-7 2 -12 -1.5t-7 -8.5
q-3 -7 0.5 -12t8.5 -7q46 -13 83 -37q38 -23 65 -53t42 -65t15 -72q0 -65 -43 -121.5t-117 -90.5q-5 -2 -7.5 -7t-2.5 -12l20 -93l-103 77q-2 3 -5 3h-8q-16 -2 -31 -2.5t-29 -0.5q-45 0 -87 11t-78.5 30t-64.5 46q-29 26 -46 57q-2 5 -8.5 7t-13.5 0q-5 -3 -7 -9.5t1 -13.5
q19 -36 51 -66t72 -51.5t86 -33.5q47 -12 95 -12q14 0 29 0.5t31 2.5l132 -99h4.5h4.5q3 0 5 0.5t5 2.5q2 3 5.5 7t0.5 9l-25 122q76 38 121 101t45 132q1 44 -15 84t-46 74t-72 60q-43 26 -94 42v0z" />
    <glyph glyph-name="uniE949" unicode="&#xe949;" horiz-adv-x="1248"
d="M1158 864l-96 64q-43 26 -92 32.5t-100 -10.5l-752 -246v0v0h-70q-19 0 -33.5 -14.5t-14.5 -33.5v-310q0 -8 4.5 -12t11.5 -4q58 0 91.5 -34t33.5 -91q0 -58 -33.5 -91.5t-91.5 -33.5q-7 0 -11.5 -4.5t-4.5 -11.5v-64q0 -48 23.5 -56t40.5 -8h1136q19 0 33.5 14.5
t14.5 33.5v672v4.5v5.5v1.5v1.5q0 67 -22 115.5t-68 79.5v0zM880 918q43 12 86.5 7.5t79.5 -26.5l96 -64q32 -21 50.5 -55t23.5 -79q-5 2 -8 2.5t-8 0.5h-979zM1216 -16q0 -7 -4.5 -11.5t-11.5 -4.5h-1136q-17 0 -24.5 4t-7.5 28v48q65 5 103 47.5t38 109.5t-38 109.5
t-103 47.5v294q0 7 4.5 11.5t11.5 4.5h1152q7 0 11.5 -4.5t4.5 -11.5v-672v0zM512 358q-65 0 -112.5 -46t-47.5 -114q0 -67 46.5 -113.5t113.5 -46.5q65 0 112.5 46.5t47.5 113.5q0 68 -47.5 114t-112.5 46zM512 70q-53 0 -90.5 38t-37.5 90q0 53 37.5 90.5t90.5 37.5
t90.5 -37.5t37.5 -90.5q0 -52 -37.5 -90t-90.5 -38zM387 518q0 32 -22.5 54.5t-54.5 22.5q-31 0 -53.5 -22.5t-22.5 -54.5q0 -31 22.5 -53.5t53.5 -22.5q32 0 54.5 21.5t22.5 54.5v0zM310 470q-19 0 -31.5 13t-12.5 32t12.5 32t31.5 13q20 0 32.5 -13t12.5 -32
q0 -17 -12.5 -31t-32.5 -14zM752 499q-24 0 -42.5 -17t-18.5 -44q0 -24 17.5 -42t43.5 -18t43.5 17t17.5 43q-3 27 -20 44t-41 17zM752 413q-12 0 -20.5 8.5t-8.5 20.5t8.5 20t20.5 8t20.5 -8t8.5 -20q-3 -12 -11 -20.5t-18 -8.5zM925 253q-31 0 -54 -23t-23 -54t23 -54
t54 -23t54 23t23 54t-23 54t-54 23zM925 128q-19 0 -32 13t-13 32t13 32t32 13t32 -13t13 -32t-13 -32t-32 -13zM1043 576q-43 0 -74 -31t-31 -75q0 -43 31 -74t74 -31t74.5 31t31.5 74q0 44 -31.5 75t-74.5 31zM1043 397q-29 0 -51 21t-22 52q0 32 21 53t52 21t52.5 -21
t21.5 -53q0 -31 -21.5 -52t-52.5 -21z" />
    <glyph glyph-name="uniE94A" unicode="&#xe94a;" horiz-adv-x="1056"
d="M176 387v-403q0 -19 14.5 -33.5t33.5 -14.5h576q19 0 33.5 14.5t14.5 33.5v403q48 5 88 28t69 59q29 38 38.5 86.5t-0.5 98.5q-14 60 -57 104.5t-103 58.5q-31 8 -60 7.5t-58 -10.5q-31 63 -91.5 100.5t-132.5 37.5q-75 0 -135.5 -40t-91.5 -107q-39 16 -79.5 18.5
t-80.5 -9.5q-53 -17 -93.5 -57t-57.5 -90q-14 -48 -7 -95t36 -91q26 -38 64.5 -63.5t79.5 -35.5v0zM816 -16q0 -7 -4.5 -11.5t-11.5 -4.5h-576q-7 0 -11.5 4.5t-4.5 11.5v144h608v-144zM35 662q15 44 49 77.5t79 47.5q15 5 31 7.5t30 2.5q24 0 46 -5.5t44 -17.5q2 -2 6 -2
t6 2l5.5 5.5l4.5 4.5q24 65 79.5 103t125.5 38q65 0 120 -35.5t81 -95.5q3 -5 9 -8.5t11 -1.5q26 12 54.5 13t57.5 -7q50 -12 87.5 -49.5t49.5 -87.5q10 -43 2.5 -85t-34.5 -75q-26 -34 -63.5 -52.5t-83.5 -21.5q-7 0 -11.5 -4.5t-4.5 -11.5v-243h-128v160q0 7 -4.5 11.5
t-11.5 4.5t-11.5 -4.5t-4.5 -11.5v-160h-128v256q0 7 -4.5 11.5t-11.5 4.5t-11.5 -4.5t-4.5 -11.5v-256h-128v160q0 7 -4.5 11.5t-11.5 4.5t-11.5 -4.5t-4.5 -11.5v-160h-128v243q0 7 -4 11.5t-9 4.5q-38 5 -74 28t-60 59t-31 76t5 80v0z" />
    <glyph glyph-name="uniE94B" unicode="&#xe94b;" horiz-adv-x="736"
d="M352 512q-7 0 -11.5 -4.5t-4.5 -11.5t4.5 -11.5t11.5 -4.5h256q7 0 11.5 4.5t4.5 11.5t-4.5 11.5t-11.5 4.5h-256zM608 352h-256q-7 0 -11.5 -4.5t-4.5 -11.5t4.5 -11.5t11.5 -4.5h256q7 0 11.5 4.5t4.5 11.5t-4.5 11.5t-11.5 4.5zM608 192h-256q-7 0 -11.5 -4.5
t-4.5 -11.5t4.5 -11.5t11.5 -4.5h256q7 0 11.5 4.5t4.5 11.5t-4.5 11.5t-11.5 4.5zM262 525l-48 -45l-19 19q-5 5 -11 5t-11 -5t-5 -11t5 -11l32 -32q2 -3 5 -3h8q4 0 7 1.5t5 1.5l58 57q5 5 5 11.5t-5 11.5t-13 5t-13 -5zM262 387l-44 -45l-20 20q-4 4 -10.5 4t-11.5 -4
q-5 -5 -5 -11.5t5 -11.5l32 -32q2 -2 5 -2.5t8 -0.5t7.5 1.5t5.5 1.5l57 58q5 5 5 11t-5 11t-14.5 5t-14.5 -5v0zM262 218l-44 -45l-23 19q-5 5 -11 5t-11 -5t-5 -11.5t5 -10.5l32 -32q2 -3 5 -3.5t8 -0.5q4 0 7 2t5 2l58 57q5 5 5 11.5t-5 11.5q-5 4 -13 4t-13 -4v0z
M464 960h-192q-7 0 -11.5 -4.5t-4.5 -11.5v-48h-80q-19 0 -33.5 -14.5t-14.5 -33.5v-16h-80q-19 0 -33.5 -14.5t-14.5 -33.5v-800q0 -19 14.5 -33.5t33.5 -14.5h640q19 0 33.5 14.5t14.5 33.5v800q0 19 -14.5 33.5t-33.5 14.5h-80v16q0 19 -14.5 33.5t-33.5 14.5h-80v48
q0 7 -4.5 11.5t-11.5 4.5zM688 800q7 0 11.5 -4.5t4.5 -11.5v-800q0 -7 -4.5 -11.5t-11.5 -4.5h-640q-7 0 -11.5 4.5t-4.5 11.5v800q0 7 4.5 11.5t11.5 4.5h80v-16q0 -19 14.5 -33.5t33.5 -14.5h384q19 0 33.5 14.5t14.5 33.5v16h80zM560 864q7 0 11.5 -4.5t4.5 -11.5v-64
q0 -7 -4.5 -11.5t-11.5 -4.5h-384q-7 0 -11.5 4.5t-4.5 11.5v64q0 7 4.5 11.5t11.5 4.5h96q7 0 11.5 4.5t4.5 11.5v48h160v-48q0 -7 4.5 -11.5t11.5 -4.5h96z" />
    <glyph glyph-name="uniE94C" unicode="&#xe94c;" horiz-adv-x="1056"
d="M646 701q5 5 5 11t-5 11q-4 5 -10.5 5t-11.5 -5l-390 -381q-20 -19 -29.5 -42.5t-9.5 -49.5q0 -27 9.5 -51.5t29.5 -41.5q38 -39 94.5 -39t97.5 39l444 435q32 31 48 70.5t16 83.5q0 43 -16 82.5t-48 70.5t-73 47t-83.5 16t-83.5 -16t-73 -47l-467 -457q-44 -44 -67 -98
t-23 -114t23 -113.5t67 -94.5q43 -43 98 -64.5t113 -21.5q57 0 113 21.5t101 64.5l535 522q4 5 4 11.5t-4 10.5q-5 5 -11.5 5t-11.5 -5l-534 -521q-40 -39 -90 -58t-102 -19t-103 19q-50 19 -89 58q-36 38 -56.5 85.5t-20.5 99.5q0 53 21 101.5t59 84.5l467 458
q55 55 134.5 55t134.5 -55q26 -27 40 -60t14 -72q0 -38 -14 -71t-40 -60l-445 -435q-31 -29 -73.5 -29t-73.5 29q-14 14 -21.5 32.5t-7.5 37.5q0 20 7.5 40t21.5 34l390 381v0z" />
    <glyph glyph-name="uniE94D" unicode="&#xe94d;" horiz-adv-x="1504"
d="M1136 688h-6h-7h-4.5h-4.5q-17 60 -52 110q-36 50 -84 86t-106 56t-120 20q-78 0 -148 -30q-69 -30 -121.5 -81.5t-83.5 -120.5q-31 -70 -31 -149v-1.5v-1.5q0 2 -21.5 4t-36.5 2q-63 0 -120 -25q-56 -26 -98.5 -70t-66.5 -103q-25 -59 -25 -125t25 -125
q24 -58 66.5 -102t98.5 -70q57 -26 120 -26h314q7 0 11.5 4.5t4.5 11.5t-4.5 11.5t-11.5 4.5h-314q-57 0 -108 23q-52 24 -90 64t-61 93q-22 52 -22 111t22 112q23 53 61 93t90 63q51 23 108 23q20 0 38.5 -2t35.5 -7v0v0q36 -10 67 -28.5t58 -45.5q2 -2 5 -2.5t8 -0.5
q4 0 7 0.5t5 2.5q5 5 5 11.5t-5 11.5q-26 26 -59 45t-69 31v7v6q0 72 28 136q27 63 74.5 110.5t111.5 74.5q63 28 135 28q57 0 109 -18q52 -17 95.5 -49.5t76.5 -76.5q32 -45 49 -99q-63 -9 -122 -38q-60 -29 -107 -79t-75 -123q-29 -72 -29 -167v-249l-80 77q-5 4 -11.5 4
t-10.5 -4q-5 -5 -5 -11.5t5 -11.5l105 -105q3 -3 5 -6.5t5 -3.5v0v0q2 0 6 3.5t7 6.5l96 105q4 5 4 11.5t-4 11.5q-5 4 -11.5 4t-11.5 -4l-67 -74v246q0 93 30 162q29 69 76.5 116t106.5 72q60 24 120 28h3h3h7h6q70 0 131 -27t106.5 -73.5t72.5 -108.5q26 -63 26 -133
q1 -70 -25 -133q-26 -62 -71.5 -109.5t-106.5 -75.5t-130 -28h-227q-7 0 -11.5 -4.5t-4.5 -11.5t4.5 -11.5t11.5 -4.5h227q76 0 143 30t117 82t79 120q29 69 29 146q0 78 -29 146t-79.5 118.5t-118.5 80.5q-67 29 -144 29v0z" />
    <glyph glyph-name="uniE94E" unicode="&#xe94e;" horiz-adv-x="1568"
d="M1187 682h-9h-8.5h-7.5q-18 61 -55 112q-36 51 -86 88t-110 57q-61 21 -127 21q-82 0 -153 -31q-72 -31 -125.5 -84.5t-84.5 -124.5q-31 -72 -31 -154v-3v-3q-33 7 -68.5 6.5t-68.5 -9.5q-49 -11 -91 -34q-41 -22 -73 -54.5t-53 -72.5t-30 -86q-12 -72 5 -139t63 -120
q45 -55 111.5 -85t140.5 -30h180q56 0 111 19q55 18 98.5 53t70.5 86q27 50 27 114v106l73 -77q5 -5 11.5 -5t11.5 5t5 11t-5 11l-99 106v0v0q-3 2 -5.5 4t-7.5 2h-3.5h-3.5q-2 0 -3 -1.5t-3 -1.5v0l-102 -106q-5 -4 -5 -10.5t5 -11.5q2 -2 5 -2.5t7 -0.5q3 0 7 0.5t6 2.5
l77 77v-106q0 -56 -24 -101q-24 -44 -63 -75t-88 -47q-50 -17 -100 -17h-179q-68 0 -128 27.5t-103 78.5q-41 48 -55.5 108.5t-5.5 124.5q8 41 27 77t48 65t66 49q37 21 80 30q36 7 72 7t72 -10q5 0 8 0.5t5 2.5q2 3 4 7t2 6v12.5v13.5q0 73 29 138t78 114t115 77
q66 29 140 29q61 0 117 -19q57 -20 103 -55.5t80 -84.5q33 -50 49 -110q12 -48 10 -98.5t-17 -93.5q-2 -7 1.5 -12t8.5 -7h1.5h1.5q5 0 9.5 3t6.5 10q15 45 17 94.5t-7 97.5h4h2h10q74 0 141.5 -28t117.5 -81q48 -50 71 -117t19 -139q-5 -67 -35 -125t-78 -100.5t-112 -66.5
q-64 -25 -137 -25h-259q-7 0 -11.5 -4.5t-4.5 -11.5t4.5 -11.5t11.5 -4.5h259q79 0 149 27q69 26 122 72.5t85 109.5q33 64 38 137q4 79 -21.5 151t-78.5 127q-48 55 -120.5 87t-154.5 32v0z" />
    <glyph glyph-name="uniE94F" unicode="&#xe94f;" horiz-adv-x="1568"
d="M1187 675l-19 -3h-1.5h-1.5q0 2 -1.5 2.5l-1.5 0.5q-20 59 -56 110q-37 51 -86 88.5t-109 58.5q-59 22 -124 22q-81 0 -153 -31q-72 -30 -125.5 -83t-84.5 -124q-30 -71 -30 -153v-3v-3q-34 7 -69 6.5t-69 -9.5q-49 -11 -91 -34q-41 -23 -73 -55t-53 -72t-29 -86
q-12 -72 4.5 -139t62.5 -120q45 -55 111.5 -85t141.5 -30h844q80 0 149 26q70 26 122.5 72t85.5 110q32 63 37 137q5 80 -20.5 150.5t-78.5 128.5q-27 29 -59 51q-33 22 -69 37t-75 22q-39 8 -79 8v0zM1536 285q-5 -67 -34 -125q-30 -58 -78.5 -100.5t-112.5 -67.5
q-63 -24 -137 -24h-848q-67 0 -127 27.5t-103 78.5q-41 48 -55.5 108t-5.5 125q7 41 27 77q19 36 47.5 65t66.5 49q37 20 80 30q17 5 33.5 5.5t33.5 0.5q19 0 38.5 -2t38.5 -7q5 0 7.5 0.5t5.5 2.5q2 2 4 6t2 7v12.5v12.5q1 75 31 141q29 65 78.5 114.5t115.5 77.5
q66 29 140 29q61 0 118 -19q56 -20 102 -55.5t80 -84.5q33 -50 49 -110q12 -48 10 -98.5t-17 -93.5q-2 -7 1.5 -12t8.5 -7h1.5h1.5q5 0 9.5 3t6.5 10q15 45 17 94.5t-7 97.5h16q74 0 141.5 -28t117.5 -81q53 -55 77 -121t19 -138v0z" />
    <glyph glyph-name="uniE950" unicode="&#xe950;" horiz-adv-x="1152"
d="M454 445q-4 5 -10.5 5t-11.5 -5l-112 -112q-2 -3 -2.5 -5.5t-0.5 -7.5t1.5 -7.5t1.5 -5.5l112 -112q2 -2 5 -2.5t8 -0.5t7.5 0.5t5.5 2.5q4 5 4 11.5t-4 11.5l-106 102l102 102q5 5 5 11.5t-5 11.5zM637 198q2 -2 5 -2.5t8 -0.5q4 0 7 0.5t5 2.5l112 112q5 5 5 11.5
t-5 11.5l-112 112q-4 5 -10.5 5t-11.5 -5t-5 -11.5t5 -11.5l96 -102l-102 -102q-3 -3 -2.5 -9t5.5 -11zM557 438l-55 -224q-2 -7 2 -11.5t11 -7.5h1.5h1.5q5 0 9.5 4t6.5 9l55 224q2 7 -2 12t-11 7q-7 0 -13 -4t-6 -9v0zM0 -16q0 -19 14.5 -33.5t33.5 -14.5h1056
q19 0 33.5 14.5t14.5 33.5v576q0 7 -4.5 11.5t-11.5 4.5t-11.5 -4.5t-4.5 -11.5v-576q0 -7 -4.5 -11.5t-11.5 -4.5h-1056q-7 0 -11.5 4.5t-4.5 11.5v576q0 7 -4.5 11.5t-11.5 4.5t-11.5 -4.5t-4.5 -11.5v-576zM1104 960h-1056q-19 0 -33.5 -14.5t-14.5 -33.5v-256
q0 -19 14.5 -33.5t33.5 -14.5h1056q19 0 33.5 14.5t14.5 33.5v256q0 19 -14.5 33.5t-33.5 14.5zM1120 656q0 -7 -4.5 -11.5t-11.5 -4.5h-1056q-7 0 -11.5 4.5t-4.5 11.5v256q0 7 4.5 11.5t11.5 4.5h1056q7 0 11.5 -4.5t4.5 -11.5v-256zM160 784q0 -13 -9.5 -22.5t-22.5 -9.5
t-22.5 9.5t-9.5 22.5t9.5 22.5t22.5 9.5t22.5 -9.5t9.5 -22.5zM256 784q0 -13 -9.5 -22.5t-22.5 -9.5t-22.5 9.5t-9.5 22.5t9.5 22.5t22.5 9.5t22.5 -9.5t9.5 -22.5zM352 784q0 -13 -9.5 -22.5t-22.5 -9.5t-22.5 9.5t-9.5 22.5t9.5 22.5t22.5 9.5t22.5 -9.5t9.5 -22.5z" />
    <glyph glyph-name="uniE951" unicode="&#xe951;" horiz-adv-x="1056"
d="M749 438q-19 -21 -17 -52t23 -50l99 -99l3.5 -3.5t0.5 -3.5q0 -2 -0.5 -3t-3.5 -3l-99 -96q-21 -22 -23 -53t17 -53q12 -12 26.5 -18.5t30.5 -6.5q15 0 29 5t26 17l169 170q10 9 15 21t5 24t-5 23.5t-15 20.5l-169 170q-24 19 -58.5 18t-53.5 -28v0zM1014 230
q0 -7 -2 -12t-7 -10l-170 -170q-12 -12 -32 -11.5t-32 15.5q-12 12 -10 30t17 30l99 100q5 4 9 11.5t4 16.5q0 8 -3 15t-10 14l-99 99q-12 12 -14 30.5t7 30.5q7 7 15 11.5t20 4.5q10 0 17.5 -2.5t14.5 -10.5l170 -169l4 -10t2 -13zM32 195q2 -12 9 -23t17 -18l192 -141
q9 -7 20.5 -11.5t23.5 -4.5q22 0 40 10.5t28 27.5q14 24 6 53.5t-32 45.5l-112 84q-2 2 -2.5 4.5t-0.5 4.5l86 115q10 12 12.5 28t0.5 33t-11.5 29.5t-23.5 21.5q-24 15 -53.5 8.5t-49.5 -30.5l-140 -189q-5 -9 -8.5 -22.5t-1.5 -25.5v0zM70 224l141 189q7 9 17 14t22 5
q4 0 10 -2t9 -4q7 -5 13 -12.5t6 -16.5q2 -10 0 -19t-6 -16l-87 -116q-9 -14 -7 -29t17 -25l112 -83q14 -10 18.5 -26.5t-2.5 -31.5q-10 -17 -30 -21t-34 5l-192 141q-5 7 -9 12.5t-4 13.5q0 7 1 12t5 10v0zM461 -61q5 -2 11 -2.5t11 -0.5q24 0 45.5 15t28.5 39l137 439
q10 29 -5 57.5t-46 38.5q-29 9 -57.5 -5.5t-38.5 -45.5l-137 -439q-5 -14 -3 -28.5t9 -28.5q7 -15 18.5 -24.5t26.5 -14.5v0zM442 26l134 438q5 14 16 23t26 9q2 0 6 -0.5t6 -2.5q17 -5 25.5 -21.5t3.5 -33.5l-134 -438q-5 -17 -21.5 -25.5t-33.5 -3.5q-7 3 -13.5 8
t-11.5 15q-5 7 -5.5 14.5t2.5 17.5v0zM272 755q-7 0 -11.5 -4.5t-4.5 -11.5v-67h-38q-8 0 -12 -4.5t-4 -11.5t4 -11.5t12 -4.5h38v-38q0 -8 4.5 -12t11.5 -4t11.5 5.5t4.5 10.5v38h67q7 0 11.5 4.5t4.5 11.5t-5.5 11.5t-10.5 4.5h-67v67q0 7 -4.5 11.5t-11.5 4.5zM176 960
q-7 0 -11.5 -4.5t-4.5 -11.5v-48h-26q-7 0 -11.5 -4.5t-4.5 -11.5t4.5 -11.5t11.5 -4.5h26v-22q0 -8 4.5 -12t11.5 -4t11.5 4t4.5 12v22h45q7 0 11.5 4.5t4.5 11.5t-4.5 11.5t-11.5 4.5h-45v48q0 7 -4.5 11.5t-11.5 4.5zM26 736h6v-29q0 -7 4.5 -11.5t11.5 -4.5t11.5 4.5
t4.5 11.5v29h29q7 0 11.5 4.5t4.5 11.5t-4.5 11.5t-11.5 4.5h-29v6q0 8 -4.5 12t-11.5 4t-11.5 -4t-4.5 -12v-6h-6q-8 0 -12 -4.5t-4 -11.5t4 -11.5t12 -4.5z" />
    <glyph glyph-name="uniE952" unicode="&#xe952;"
d="M48 -64h928q19 0 33.5 14.5t14.5 33.5v928q0 19 -14.5 33.5t-33.5 14.5h-928q-19 0 -33.5 -14.5t-14.5 -33.5v-928q0 -19 14.5 -33.5t33.5 -14.5zM32 912q0 7 4.5 11.5t11.5 4.5h928q7 0 11.5 -4.5t4.5 -11.5v-928q0 -7 -4.5 -11.5t-11.5 -4.5h-928q-7 0 -11.5 4.5
t-4.5 11.5v928zM646 307q3 -2 5.5 -2.5t7.5 -0.5t8 0.5t5 2.5l128 128q5 5 5 11.5t-5 11.5l-128 128q-5 4 -11.5 4t-10.5 -4q-5 -5 -5 -11.5t5 -11.5l118 -118l-118 -119q-8 -2 -8 -8t4 -11v0zM349 307q2 -2 4.5 -2.5t4.5 -0.5q5 0 8 2t5 4q5 5 3.5 11.5t-6.5 11.5l-134 99
l99 134q5 5 3 11.5t-6 11.5q-5 5 -11.5 3t-11.5 -6l-109 -148q-4 -4 -2.5 -10.5t6.5 -11.5l147 -109v0zM448 256h1.5h1.5q5 0 9.5 3t6.5 10l109 352q2 7 -1.5 12t-8.5 7q-7 2 -11.5 -1.5t-7.5 -8.5l-109 -352q-2 -7 1.5 -13.5t8.5 -8.5v0z" />
    <glyph glyph-name="uniE953" unicode="&#xe953;" horiz-adv-x="1696"
d="M534 234q42 0 80 16q37 16 65 44t44 65t16 79t-16 80q-16 37 -44 65t-65 44q-38 16 -80 16t-79 -16t-65 -44t-44 -65q-16 -38 -16 -80t16 -79t44 -65t65 -44t79 -16v0zM534 611q72 0 122.5 -50.5t50.5 -122.5t-50.5 -122t-122.5 -50t-122 50t-50 122t50 122.5t122 50.5v0
zM211 243l-38 -35q-12 -12 -19 -28.5t-7 -35.5t7 -35.5t19 -28.5q24 -24 63 -25t68 25l32 35q19 -12 40.5 -21.5t42.5 -16.5v-51q0 -36 29 -63t67 -27q39 0 67.5 27t28.5 63v41q41 7 69.5 19t52.5 29l38 -38q27 -27 65.5 -27t62.5 27q27 26 27 63.5t-27 64.5l-38 35
q9 19 18.5 38.5t16.5 38.5h45q36 0 62.5 28.5t26.5 67.5q0 38 -26.5 67t-62.5 29h-35q-8 41 -20 69t-28 52l38 39q26 26 26 63.5t-26 64.5q-26 26 -65 26t-63 -26l-42 -42q-24 15 -50.5 27.5t-67.5 17.5v70q0 36 -29 63t-67 27t-67 -27t-29 -63v-70q-22 -7 -41.5 -16.5
t-38.5 -21.5l-38 41q-27 27 -64.5 27t-63.5 -27q-12 -14 -18.5 -31t-4.5 -36q0 -19 7.5 -35.5t21.5 -28.5l38 -38q-19 -29 -29.5 -57.5t-18.5 -64.5h-64q-36 0 -62.5 -29t-26.5 -67t26.5 -67t62.5 -29h77q5 -22 14 -41t18 -36v0zM42 416q0 26 18 45t39 19h80q7 0 11.5 4
t4.5 9q5 43 17.5 72t33.5 62q3 5 2.5 11t-5.5 8l-48 48q-7 10 -11.5 21.5t-4.5 23.5t4.5 23.5t11.5 18.5q17 14 41.5 14t38.5 -14l45 -51q5 -5 9.5 -5.5t9.5 1.5q22 15 46 26.5t50 18.5q7 3 10 7t3 9v83q0 24 19 41t45 17t45 -18t19 -40v-73q0 -7 4 -11.5t9 -4.5
q45 -5 73.5 -18.5t57.5 -32.5q5 -3 11 -2.5t8 5.5l51 48q17 17 42 17t42 -17q16 -17 16 -42t-16 -41l-48 -48q-5 -5 -5.5 -10t1.5 -10q20 -28 33.5 -57t18.5 -77q0 -5 4 -9t12 -4h48q24 0 40.5 -18.5t16.5 -45.5q0 -26 -18 -45t-39 -19h-58q-5 0 -9.5 -2.5t-6.5 -10.5
q-7 -24 -18.5 -47.5t-23.5 -44.5q-2 -5 -1.5 -11t5.5 -9l48 -44q16 -17 16 -42t-16 -42q-17 -16 -42 -16t-42 16l-48 48q-4 5 -9 5.5t-10 -1.5q-26 -17 -56 -30.5t-78 -21.5q-5 0 -9 -4t-4 -12v-54q0 -24 -19 -41t-45 -17t-45 18t-19 40v61q0 5 -3 9t-10 7q-26 7 -50 18.5
t-46 26.5q-2 2 -4.5 2.5t-4.5 0.5q-3 0 -7 -2t-6 -5l-39 -44q-16 -17 -41 -17t-42 17q-7 7 -11.5 18t-4.5 23t4.5 22t11.5 20l48 45q5 4 5.5 9t-2.5 10q-14 21 -24 45t-17 48q-3 2 -7 4t-9 2h-90q-24 0 -40.5 19t-16.5 45v0zM1622 640h-32q-4 22 -12 46.5t-20 46.5l23 25
q7 10 13 22t6 26q0 15 -5 27t-14 21q-19 20 -47.5 20t-45.5 -16l-26 -23q-16 10 -38.5 18.5t-44.5 13.5v35q0 27 -18.5 45.5t-45.5 18.5q-26 0 -45 -18.5t-19 -45.5v-38q-19 -5 -38 -13.5t-35 -18.5l-26 26q-19 19 -46 19t-44 -19q-19 -20 -19 -50t19 -50l23 -28
q-12 -22 -19.5 -47t-12.5 -46h-32q-27 0 -45.5 -19t-18.5 -45q0 -27 18.5 -45.5t45.5 -18.5h35q5 -17 12.5 -34t19.5 -33l-26 -26q-19 -19 -19 -43t19 -43q10 -10 20.5 -13t24.5 -3q12 0 22.5 4.5t22.5 14.5l22 25q17 -9 36.5 -18t40.5 -14v-35q0 -26 19 -45t45 -19
q27 0 45.5 19t18.5 45v32q24 5 45.5 14t37.5 18l23 -22q17 -17 46.5 -18t46.5 18q19 19 19 43t-19 43l-26 23q12 16 19.5 33t12.5 34h38q27 0 45.5 18.5t18.5 45.5q0 26 -18.5 46.5t-45.5 20.5v0zM1622 544h-51q-5 0 -9 -4t-7 -9q-5 -21 -14.5 -39.5t-23.5 -40.5
q-5 -5 -3.5 -11t6.5 -11l35 -29q12 -12 9.5 -21.5t-9.5 -16.5q-9 -10 -25 -10t-23 10l-32 32q-5 4 -9.5 4.5t-9.5 -1.5q-22 -15 -49.5 -24.5t-46.5 -14.5q-5 0 -9 -5.5t-4 -10.5v-44q0 -15 -8.5 -23.5t-23.5 -8.5q-14 0 -23 10t-9 22v48q0 4 -4 8.5t-9 7.5q-24 4 -47 14
t-42 24q-3 2 -5 2.5t-5 0.5q-2 0 -6 -2t-7 -4l-32 -35q-7 -8 -12 -9t-10 -1q-7 0 -13.5 2t-8.5 4q-10 10 -10 21t10 21l38 32q5 5 5.5 11.5t-2.5 10.5q-14 22 -23.5 40.5t-14.5 39.5q-3 5 -7 9t-9 4h-51q-15 0 -23.5 9t-8.5 23q0 15 10 23.5t22 8.5h44q5 0 10.5 4t5.5 9
q5 24 14.5 54t21.5 52q2 4 2 9t-2 10l-32 38q-10 10 -10 27.5t10 27.5q9 9 22 9t22 -9l36 -36q4 -4 9 -4.5t10 1.5q19 12 42 23t44 16q5 -3 9 1t4 11v48q0 15 9 23.5t23 8.5t23 -10t9 -22v-48q0 -4 4 -8.5t9 -7.5q21 -4 47.5 -14t48.5 -24q5 -2 9.5 -2t9.5 2l35 32
q10 10 24.5 8t23.5 -11q5 -3 9 -9t4 -14q0 -7 -2.5 -13.5t-7.5 -11.5l-32 -35q-2 -5 -3 -10t3 -10q15 -21 24.5 -51t14.5 -54q0 -5 4.5 -9t11.5 -4h45q14 0 23 -9t9 -23t-10.5 -23t-25.5 -9v0zM1318 752q-62 0 -107.5 -44.5t-45.5 -109.5q0 -64 44.5 -108.5t108.5 -44.5
q63 0 108.5 44.5t45.5 108.5q0 65 -44.5 109.5t-109.5 44.5zM1318 477q-50 0 -85.5 35.5t-35.5 85.5q0 51 35.5 86.5t85.5 35.5q51 0 86.5 -35.5t35.5 -86.5q0 -50 -35.5 -85.5t-86.5 -35.5v0z" />
    <glyph glyph-name="uniE954" unicode="&#xe954;"
d="M995 371q-2 7 -5 14.5t-8 14.5v0v0l-83 186q-5 7 -9.5 12.5t-9.5 12.5v0v0l-134 151v0v0v0v0l-176 121q-12 5 -24 9t-24 4l-180 58q-9 4 -19 4.5t-22 -1.5q0 2 -2 2.5t-5 0.5h-182q-46 0 -79 -33t-33 -79v-832q0 -34 23 -57t57 -23h864q34 0 57 23t23 57v160q0 7 -2 14.5
t-4 14.5l-23 166v0zM963 365l16 -119q-7 5 -16 7.5t-19 2.5h-710l630 163q34 10 62 -6.5t37 -47.5v0zM870 570l55 -125q-17 7 -34 7.5t-33 -4.5l-640 -166l544 313q28 19 61 11t47 -36v0zM707 746l16 -10l87 -96q-17 0 -32 -3t-29 -13l-544 -314l413 416q16 22 42 27t47 -7
v0zM550 854l103 -70q-17 -2 -33 -10t-28 -22l-467 -474l313 544q8 15 21 24.5t27 14.5q20 5 35 3t29 -10v0zM272 915q14 10 30 11t31 -1l125 -42q-15 -7 -26.5 -18t-18.5 -23l-339 -586h-2h-2l167 611q2 17 12.5 29t22.5 19zM32 848q0 34 23 57t57 23h125
q-12 -10 -19.5 -23.5t-12.5 -27.5l-170 -634v-0.5v-2.5l-1.5 -1.5l-1.5 -1.5v611v0zM992 16q0 -19 -14.5 -33.5t-33.5 -14.5h-864q-19 0 -33.5 14.5t-14.5 33.5v160q0 19 14.5 33.5t33.5 14.5h864q19 0 33.5 -14.5t14.5 -33.5v-160zM160 163q-26 0 -45 -18.5t-19 -45.5
q0 -26 19 -45t45 -19t45 19t19 45q0 27 -19 45.5t-45 18.5zM160 67q-14 0 -23 9t-9 23q0 15 9 23.5t23 8.5t23 -8.5t9 -23.5q0 -14 -9 -23t-23 -9z" />
    <glyph glyph-name="uniE955" unicode="&#xe955;" horiz-adv-x="1088"
d="M346 778q-34 0 -57 -23.5t-23 -56.5q0 -34 23 -57t57 -23q33 0 56.5 23t23.5 57q0 33 -23.5 56.5t-56.5 23.5zM346 650q-20 0 -34 14t-14 34q0 19 14 33.5t34 14.5q19 0 33.5 -14.5t14.5 -33.5q0 -20 -13.5 -34t-34.5 -14zM688 666q0 33 -23 56.5t-57 23.5t-57 -23.5
t-23 -56.5q0 -34 23 -57t57 -23t57 23t23 57zM560 666q0 19 14.5 33.5t33.5 14.5t33.5 -14.5t14.5 -33.5q0 -20 -14.5 -34t-33.5 -14t-33.5 13t-14.5 35zM733 525q-34 0 -57 -23.5t-23 -56.5q0 -34 23 -57t57 -23q33 0 56.5 23t23.5 57q0 33 -24.5 56.5t-55.5 23.5zM733 397
q-19 0 -33.5 14.5t-14.5 33.5t14.5 33.5t33.5 14.5t33.5 -14.5t14.5 -33.5t-14.5 -33.5t-33.5 -14.5zM653 288q-41 0 -68.5 -27.5t-27.5 -68.5t27.5 -68.5t68.5 -27.5t68.5 27.5t27.5 68.5t-29 68.5t-67 27.5zM653 128q-27 0 -45.5 19t-18.5 45t18.5 45t45.5 19q26 0 45 -19
t19 -45t-19 -45t-45 -19zM544 960q-113 0 -212 -43t-173 -118t-116 -175q-43 -100 -43 -214q0 -57 11 -111q10 -54 30.5 -104t50.5 -94q30 -45 68 -82q22 -21 45 -33t45 -12q19 0 33.5 9.5t23.5 26.5q15 26 8.5 61t-30.5 67q-12 16 -14.5 32.5t4.5 31.5q5 9 14 14t21 5
q15 0 52 -17t92 -89q44 -55 85 -90q42 -35 79.5 -54.5t70.5 -27.5q33 -7 60 -7q45 0 85.5 16.5t74.5 47.5q43 40 76 87q34 46 56.5 98.5t34.5 108.5q12 57 12 116q0 114 -43 214q-42 100 -116 175t-173 118t-212 43v0zM886 22q-28 -26 -64 -40t-76 -14q-48 0 -119.5 31.5
t-152.5 134.5q-46 58 -90 88.5t-80 30.5q-22 0 -38 -9.5t-26 -29.5q-12 -21 -8 -47.5t21 -48.5q21 -28 25 -54.5t-6 -41.5q-2 -7 -9.5 -13t-19.5 -6q-14 0 -31 9.5t-36 25.5q-34 36 -60 79q-27 43 -45.5 90.5t-28.5 98.5t-10 104q0 106 40 201q41 94 110.5 164.5
t162.5 111.5t199 41t199 -41t162.5 -111.5t110.5 -164.5q40 -95 40 -201q0 -56 -11 -109q-11 -54 -33 -103.5t-53 -93.5q-32 -44 -73 -82v0z" />
    <glyph glyph-name="uniE956" unicode="&#xe956;" horiz-adv-x="800"
d="M406 659q20 0 34 14.5t14 33.5t-14 33.5t-34 14.5q-19 0 -33.5 -14.5t-14.5 -33.5t13.5 -33.5t34.5 -14.5zM406 723q8 0 12 -4.5t4 -11.5t-4 -11.5t-12 -4.5q-7 0 -11.5 4.5t-4.5 11.5t4.5 11.5t11.5 4.5zM10 -61h3h3q5 0 9.5 2.5t6.5 7.5l141 317q50 -32 107 -48
t117 -16q65 0 124.5 18.5t112.5 54.5l134 -326q2 -5 6.5 -7.5t9.5 -2.5h3h3q8 3 10 9t0 14l-141 332q10 8 19 15.5t16 16.5q20 20 20 47t-20 46q-19 19 -44.5 19.5t-44.5 -16.5l-83 199q14 19 24.5 41t10.5 48q0 44 -25 78t-49 50v55q0 26 -18.5 45t-45.5 19q-26 0 -45 -19
t-19 -45v-58q-48 -17 -67 -52t-19 -76q0 -24 7 -47t22 -42l-96 -212q-3 3 -7 5.5t-6 4.5q-19 19 -48 19t-48 -19t-19 -46.5t19 -46.5q12 -12 24 -22t24 -19l-141 -320q-2 -8 1.5 -14t8.5 -9v0zM384 893q0 14 9 23t23 9t23 -9t9 -23v-45q-24 2 -24.5 2.5t-7.5 0.5t-19.5 -0.5
t-12.5 -2.5v45zM406 819q46 0 79 -33t33 -79q0 -45 -33 -78.5t-79 -33.5q-45 0 -78.5 33.5t-33.5 78.5q0 46 32 79t80 33zM317 595q19 -14 41 -23t48 -9q24 0 47.5 9t42.5 23l83 -198q-38 -31 -85 -47.5t-97 -16.5q-46 0 -90 14t-80 40l90 208v0zM115 394q5 4 12 6.5t14 2.5
t14 -2.5t11 -6.5q46 -46 104.5 -71t123.5 -25q60 0 114 20.5t100 59.5v0v0l6 6t7 6q9 10 23.5 10t24.5 -10q9 -9 9 -23.5t-9 -24.5q-55 -55 -127 -85t-152 -30q-60 0 -114.5 17t-102.5 50q0 3 -2 3.5t-5 3.5v0v0q-14 9 -26.5 21t-24.5 24q-9 9 -9 23.5t9 24.5v0z" />
    </font>
</defs>
</svg>
